ML
     
  Уважаемый Гость!
Вы можете поддержать проект и зарегистрироваться у наших партнеров - онлайн-стратегия MyLands. При регистрации в игре Вы получите код, который сможете активировать после регистрации на pirat.ca и получить 1000 дублонов.

Ваш код:
ea554e7ed3eacceeae87a8b30a9de3f086c18a84
 
     

Демоны да Винчи / Da Vinci's Demons / Сезон: 1 / Серии: 1-8 из 8 (Майкл Дж. Бассетт/Michael J. Bassett, Дэвид С. Гойер/David S. Goyer, Джэми Пэйн/Jamie Payne) [2013 г., фэнтези, приключения, история, HDRip] MVO + Original (Eng) (AlexFilm)

Ответить на тему
 
Автор
Сообщение

Пост 11-Май-2013 18:18

[Q] 

ara1205

-Демоны да Винчи / Da Vinci's DemonsСезон: 1 / Серии: 1-8-- Производство: США
Жанр: фэнтези, драма, приключения, история
Год выпуска: 2013 г.
Продолжительность: 8 х ~59
Мировая премьера: 12 апреля 2013
Российская премьера: 26 апреля 2013
Перевод: Профессиональный (многоголосый, закадровый) [AlexFilm]
Оригинальный аудиопоток: английский-Режиссер: Майкл Дж. Бассетт/Michael J. Bassett, Дэвид С. Гойер/David S. Goyer, Джэми Пэйн/Jamie Payne-В ролях: Том Райли, Лаура Хэддок, Блейк Ритсон, Эллиот Кауэн, Лара Пулвер, Грегг Чиллин, Гера Хилмар, Эрос Влахос, Джеймс Фолкнер, Том Бейтман, Александр Сиддиг, Пол Вествуд, Джан Эрик Мэдсен, Джеймс Бриэн-Описание: В мире, где мысль и вера находятся под контролем, один человек борется за то, чтобы сделать знания доступными для всех.
Не рассказанная история трагичной жизни Леонардо Да Винчи раскрывает портрет молодого человека, которого мучает дар гения. Он — еретик, жаждущий раскрыть ложь религии. Бунтарь, стремящийся низвергнуть элитарное общество. Незаконнорожденный сын, требующий от своего отца признания его прав.
Он оказывается посреди разразившегося урагана страстей, который спал веками. Внутри конфликта между правдой и ложью, религией и интеллектом, прошлым и будущим. Его стремления используются против него противоборствующими силами того времени, вовлекая его в соблазнительную игру, в которой те, кто презирает его ум, нуждаются в нём больше всего.
Леонардо должен вступить в конфронтацию с теми, кто использует историю, чтобы скрыть истину. Вооружённый лишь собственным гением Да Винчи в одиночку противостоит тьме как внутри, так и снаружи.
Перед лицом неопределённости будущего его поход за знаниями едва не становится для него погибелью, когда он переходит за грань своего здравомыслия. Да Винчи, словно в омут с головой, уходит в собственные гениальные идеи, воплотив которые, становится необоримой силой, вытаскивающей из темноты и поворачивающей к свету целую эпоху.
Его история становится зеркалом для нашего мира, зовущее всех нас на бой за Свободное Будущее.- -Качество видео: HDRip
Контейнер: AVI
Видео кодек: XviD
Аудио кодек: MP3
Видео: 720x400 (1.80:1), 23.976 fps, XviD ~1310 kbps avg, 0.19 bit/pixel
Аудио: 48 kHz, MPEG Layer 3, 2 ch, ~128.00 kbps avg
Аудио #2: 48 kHz, MPEG Layer 3, 2 ch, ~128.00 kbps avg
Cубтитры: отсутствуют-
Общее
Полное имя : C:\Users\Ромик\Desktop\Da.Vinci's.Demons.s01e01.Rus.Eng.AlexFilm.avi
Формат : AVI
Формат/Информация : Audio Video Interleave
Размер файла : 670 Мбайт
Продолжительность : 58 м.
Общий поток : 1589 Кбит/сек
Название фильма : Da Vinci's Demons 1x01 The Hanged Man @ AlexFilm
Программа кодирования : VirtualDubMod 1.5.10.2 (build 2542/release)
Видео
Идентификатор : 0
Формат : MPEG-4 Visual
Профиль формата : Advanced [email protected]
Параметр BVOP формата : 1
Параметр QPel формата : Нет
Параметр GMC формата : Без точки перехода
Параметр матрицы формата : Default (MPEG)
Идентификатор кодека : XVID
Идентификатор кодека/Подсказка : XviD
Продолжительность : 58 м.
Битрейт : 1319 Кбит/сек
Ширина : 720 пикселей
Высота : 400 пикселей
Соотношение сторон : 16:9
Частота кадров : 23,976 кадра/сек
Цветовое пространство : YUV
Субдискретизация насыщенности : 4:2:0
Битовая глубина : 8 бит
Тип развёртки : Прогрессивная
Метод сжатия : С потерями
Бит/(Пиксели*Кадры) : 0.191
Размер потока : 556 Мбайт (83%)
Библиотека кодирования : XviD 1.2.1 (UTC 2008-12-04)
Аудио #1
Идентификатор : 1
Формат : MPEG Audio
Версия формата : Version 1
Профиль формата : Layer 3
Режим : Joint stereo
Расширение режима : MS Stereo
Идентификатор кодека : 55
Идентификатор кодека/Подсказка : MP3
Продолжительность : 58 м.
Вид битрейта : Постоянный
Битрейт : 128 Кбит/сек
Каналы : 2 канала
Частота : 48,0 КГц
Метод сжатия : С потерями
Размер потока : 54,0 Мбайт (8%)
Выравнивание : Соединение по промежуткам
Продолжительность промежутка : 42 мс. (1,00 видеокадр)
Время предзагрузки промежутка : 504 мс.
Заголовок : Russian (AlexFilm)
Аудио #2
Идентификатор : 2
Формат : MPEG Audio
Версия формата : Version 1
Профиль формата : Layer 3
Режим : Joint stereo
Расширение режима : MS Stereo
Идентификатор кодека : 55
Идентификатор кодека/Подсказка : MP3
Продолжительность : 58 м.
Вид битрейта : Постоянный
Битрейт : 128 Кбит/сек
Каналы : 2 канала
Частота : 48,0 КГц
Метод сжатия : С потерями
Размер потока : 54,0 Мбайт (8%)
Выравнивание : Соединение по промежуткам
Продолжительность промежутка : 42 мс. (1,00 видеокадр)
Время предзагрузки промежутка : 504 мс.
Заголовок : English
-
-
-
Внимание! Раздача ведётся путём добавления новых серий; при каждом добавлении создётся новый торрент. Чтобы начать докачку новой серии, пользователям необходимо сделать следующее:
(1) остановить скачивание,
(2) удалить старый торрент у себя из клиента (старые серии удалять не надо),
(3) скачать новый торрент и запустить его у себя в клиенте вместо старого, при этом указать клиенту путь в старую папку куда и должно происходить скачивание новых серий.
Ваш клиент при этом должен произвести хеширование (проверку) старой папки (если не производит сам - помогите ему сделать это), и будет докачивать только те серии которых у вас ещё нет. Старые серии при этом не удаляются, а продолжают раздаваться!
Eсли вы уже удалили старые серии, то предотвратить повторную закачку старых серий можно, отжав галочку в соответсвующих местах при запуске нового торрента. По возможности, желательно не удалять старые серии как можно дольше чтобы релизёр не столько продолжал раздавать старые серии, а смог сконцентрироваться на новых.
-
1. Открыть торрент.
2. Снять галки с тех файлов торрента, которые мы не хотим закачивать. Оставляем только на нужных нам файлах (файле).
3. Нажать О.К.
Подробнее
1) Открыть торрент

2) Снять галки с тех файлов торрента, которые мы не хотим закачивать:
либо вручную, снимая с каждого файла галку
( скрин №1)
либо, нажав кнопку "Снять метки (Select None)" , сняв сразу со всех файлов(скрин №2)
№1

№2

3) Галки оставляем только на нужных нам файлах (файле).

4) Нажать OK!!!
-14/06/2013 Добавлена последняя 8 серия!Ждём теперь с нетерпением нового сезона
Download / Скачать

Хотите скачать бесплатно? Зарегистрируйтесь на сайте (ссылка на регистрацию). Pirat.ca - самый быстрый торрент трекер в рунете!

Как скачивать  ·   Что такое торрент  ·   Рейтинг и ограничения



Последний раз редактировалось: ara1205 (2013-06-14 00:34), всего редактировалось 7 раз(а)

tov.KAPITAN

Корсар

Пост 11-Май-2013 18:46 (спустя 27 минут)

[Q] 

ara1205, спасибо!
С нетерпением жду добавления новых серий anime79

_________________
[Профиль]  [ЛС] 

ara1205 ®

69735

Пост 13-Май-2013 13:18 (спустя 1 день 18 часов)

[Q] 

Добавил новую 5-ю серию
[Профиль]  [ЛС] 

tov.KAPITAN

Корсар

Пост 14-Май-2013 13:15 (спустя 23 часа)

[Q] 

ara1205, зачёт! anime87

_________________
[Профиль]  [ЛС] 

ara1205 ®

69735

Пост 20-Май-2013 21:56 (спустя 6 дней)

[Q] 

Добавил новую 6-ю серию
[Профиль]  [ЛС] 

Gemornax

Морской Волк

Пост 21-Май-2013 08:25 (спустя 10 часов)

[Q] 

Спасибо большое!)
[Профиль]  [ЛС] 

krendel1973

Флибустьер

Пост 21-Май-2013 19:16 (спустя 10 часов)

[Q] 

[Профиль]  [ЛС] 

vodoleii

Шкипер

Пост 25-Май-2013 18:34 (спустя 3 дня)

[Q] 

[Профиль]  [ЛС] 

ara1205 ®

69735

Пост 03-Июн-2013 17:29 (спустя 8 дней)

[Q] 

Добавил новую 7-ю серию
[Профиль]  [ЛС] 

ara1205 ®

69735

Пост 14-Июн-2013 00:35 (спустя 10 дней)

[Q] 

Добавил заключительную 8-ю серию
[Профиль]  [ЛС] 

theWanderer

Корсар

1014

Пост 14-Июн-2013 17:14 (спустя 16 часов)

[Q] 


_________________
Время раздачи: с 19-00 до 8-30
[Профиль]  [ЛС] 

Kaelis

Морской Волк

Пост 24-Июл-2013 14:32 (спустя 1 месяц 9 дней)

[Q] 

нижайший поклон раздающему !
[Профиль]  [ЛС] 

TOKAPb

Лоцман

Пост 15-Фев-2015 19:52 (спустя 1 год 6 месяцев)

[Q] 

Ау-у раздающие!
[Профиль]  [ЛС] 

zvyagin_da

Пост 30-Дек-2015 00:31 (спустя 10 месяцев 14 дней)

[Q] 

Спасибо. Качаю. Буду на раздаче.
[Профиль]  [ЛС] 
Показать сообщения:    
Ответить на тему

Текущее время: Сегодня 12:14

Часовой пояс: GMT + 4



Вы не можете начинать темы
Вы не можете отвечать на сообщения
Вы не можете редактировать свои сообщения
Вы не можете удалять свои сообщения
Вы не можете голосовать в опросах
Вы не можете прикреплять файлы к сообщениям
Вы не можете скачивать файлы

▼ Вниз