ML
     
  Уважаемый Гость!
Вы можете поддержать проект и зарегистрироваться у наших партнеров - онлайн-стратегия MyLands. При регистрации в игре Вы получите код, который сможете активировать после регистрации на pirat.ca и получить 1000 дублонов.

Ваш код:
fe4e93b754a7c2b306fcfc8bc32532ea1cf59d3b
 
     

Дурман (Косяки / Дурь) / Weeds (Сезон 8 Серии 1-13 из 13) (Дженджи Коэн / Jenji Kohan) [2012 г., Комедия, криминал, HDTVRip] MVO [+ Original (Eng)] (FoxLife)

Ответить на тему
 
Автор
Сообщение

Пост 12-Май-2013 12:43

[Q] 

UrbanVampire

Корсар

Дурман (Косяки / Дурь) / Weeds
Сезон 8, Серии 1-13 из 13
Производство: США, Showtime
Жанр: Комедия, криминал
Год выпуска: 2012 г.
Продолжительность: ~ 29 мин / серия
Перевод: Профессиональный (многоголосый, закадровый) [FoxLife]
Оригинальный аудиопоток: английский
Создатель сериала: Дженджи Коэн / Jenji Kohan
В ролях: Мэри-Луиз Паркер, Элизабет Перкинс, Хантер Пэрриш, Александр Гулд, Кевин Нилон, Джастин Кирк, Романи Малко, Энди Милдер, Тони Патано, Элли Грант и др.
Описание: После выстрела в голову Нэнси постепенно реабилитируется и ищет способы вырваться из порочного круга торговли марихуаной. Шейн заканчивает полицейскую академию и получает жетон, все больше сближаясь со своим наставником-детективом и отдаляясь от семьи. Сайлас мечтает о том, чтобы продолжать выращивать марихуану. Энди живёт с сестрой Нэнси, но затем внезапно женится на молодой официантке. Даг, тем временем, вынужден превратить фальшивый дом для бездомных для отмывания денег в настоящий приют и лично работать с бездомными. Нэнси решает вернуться в Агрестик, после пожара переименованный в Регрестик, купив там участок под выращивание марихуаны, и встретиться со старыми друзьями и врагами, вновь втянув их в бизнес.

ВНИМАНИЕ! Сериал содержит сцены насилия и сцены с обнаженной натурой!
А вот перевод вполне цензурный. По словам, не по смыслу.
[Weeds 1] [Weeds 2] [Weeds 3] [Weeds 4] [Weeds 5] [Weeds 6] [Weeds 7] [Weeds 8]
Качество видео: HDTVRip
Контейнер: AVI
Видео кодек: XivD
Аудио кодек: MP3
Видео: Xvid 720x400 23.976fps ~1300kbps ~0.190bpf
Аудио RUS: MP3 48000Hz stereo 128kbps
Аудио ENG: MP3 48000Hz stereo 128kbps
General
Complete name : F:\Serials - Сериалы\Weeds - Косяки (Дурь)\weeds.s08.hdtvrip.rus(foxlife).eng.newstudio.tv\weeds.s08e01.hdtv_NewStudio.TV.avi
Format : AVI
Format/Info : Audio Video Interleave
File size : 300 MiB
Duration : 26mn 33s
Overall bit rate : 1 581 Kbps
Writing application : VirtualDubMod 1.5.10.2 (build 2540/release)
Writing library : VirtualDubMod build 2540/release
Video
ID : 0
Format : MPEG-4 Visual
Format profile : Advanced [email protected]
Format settings, BVOP : 2
Format settings, QPel : No
Format settings, GMC : No warppoints
Format settings, Matrix : Default (MPEG)
Codec ID : XVID
Codec ID/Hint : XviD
Duration : 26mn 33s
Bit rate : 1 311 Kbps
Width : 720 pixels
Height : 400 pixels
Display aspect ratio : 16:9
Frame rate : 23.976 fps
Color space : YUV
Chroma subsampling : 4:2:0
Bit depth : 8 bits
Scan type : Progressive
Compression mode : Lossy
Bits/(Pixel*Frame) : 0.190
Stream size : 249 MiB (83%)
Writing library : XviD 64
Audio #1
ID : 1
Format : MPEG Audio
Format version : Version 1
Format profile : Layer 3
Mode : Joint stereo
Mode extension : MS Stereo
Codec ID : 55
Codec ID/Hint : MP3
Duration : 26mn 33s
Bit rate mode : Constant
Bit rate : 128 Kbps
Channel(s) : 2 channels
Sampling rate : 48.0 KHz
Compression mode : Lossy
Stream size : 24.3 MiB (8%)
Alignment : Aligned on interleaves
Interleave, duration : 42 ms (1.00 video frame)
Interleave, preload duration : 504 ms
Audio #2
ID : 2
Format : MPEG Audio
Format version : Version 1
Format profile : Layer 3
Mode : Joint stereo
Mode extension : MS Stereo
Codec ID : 55
Codec ID/Hint : MP3
Duration : 26mn 33s
Bit rate mode : Constant
Bit rate : 128 Kbps
Channel(s) : 2 channels
Sampling rate : 48.0 KHz
Compression mode : Lossy
Stream size : 24.3 MiB (8%)
Alignment : Aligned on interleaves
Interleave, duration : 42 ms (1.00 video frame)
Interleave, preload duration : 504 ms
Download / Скачать

Хотите скачать бесплатно? Зарегистрируйтесь на сайте (ссылка на регистрацию). Pirat.ca - самый быстрый торрент трекер в рунете!

Как скачивать  ·   Что такое торрент  ·   Рейтинг и ограничения

Пост 14-Май-2013 12:57 (спустя 2 дня)

Топик был перенесен из форума Зарубежные сериалы (Трюм) в форум Зарубежные сериалы

kugesan
 

tu6enka

Флибустьер

Пост 20-Янв-2015 00:02 (спустя 1 год 8 месяцев)

[Q] 

Спасибо за раздачу, сериал Супер!
[Профиль]  [ЛС] 
Показать сообщения:    
Ответить на тему

Текущее время: Сегодня 14:28

Часовой пояс: GMT + 4



Вы не можете начинать темы
Вы не можете отвечать на сообщения
Вы не можете редактировать свои сообщения
Вы не можете удалять свои сообщения
Вы не можете голосовать в опросах
Вы не можете прикреплять файлы к сообщениям
Вы не можете скачивать файлы

▼ Вниз