ML
     
  Уважаемый Гость!
Вы можете поддержать проект и зарегистрироваться у наших партнеров - онлайн-стратегия MyLands. При регистрации в игре Вы получите код, который сможете активировать после регистрации на pirat.ca и получить 1000 дублонов.

Ваш код:
8b752b428cf60a012c159dcae592cd1392170115
 
     

Щит / Shield (Сезон 1 Серии 1-13 из 13) (Шон Райан / Shawn Ryan) [2002 г., Криминальная драма, DVDRip] MVO [+ Original (Eng)] (ДТВ)

Ответить на тему
 
Автор
Сообщение

Пост 12-Май-2013 16:09

[Q] 

UrbanVampire

Корсар

Щит / Shield
Сезон 1, Серии 1-13 из 13
Производство: США, FX
Жанр: Криминальная драма
Год выпуска: 2002 г.
Продолжительность: ~44 мин. / серия
Перевод: Профессиональный (многоголосый, закадровый)
Озвучено по заказу СТС, трансляция на канале ДТВ
Оригинальный аудиопоток: английский
Автор сериала: Шон Райан / Shawn Ryan
В ролях: Майкл Чиклис (Detective Vic Mackey), Катрин Дент (Officer Danni Sofer), Уолтон Гоггинс (Detective Shane Vendrell), Майкл Джейс (Officer Julien Lowe), Джей Карнс (Detective Holland Wagenbach), Бенито Мартинес (Captain David Aceveda), Си Си Эйч Паундер (Detective Claudette Wyms), Кэти Калин Райан (Corrine Mackey), Дэвид Риис Снелл (Detective Ronnie Gardocki), Кенни Джонсон (Detective Curtis Lemansky) и др.
Описание: Криминальная драма о полицейских. Нарушены все клише жанра, ведь героям приходится искать свой путь в жестоком мире, очень похожем на реальный, где принципы морали размыты и неопределённы, а граница между добром и злом пересекается каждый день.
Полицейские Лос-Анджелеса готовы на всё, чтобы сохранить порядок на улицах и защитить мирных граждан от криминала. Ради этой благородной цели крутым копам нередко приходится действовать вопреки законам. Дорога к справедливости бывает извилистой! Но всегда ли цель оправдывает средства, и можно ли бороться с преступностью преступными методами?

[Щит 1] [Щит 2] [Щит 3] [Щит 4] [Щит 5] [Щит 6] [Щит 7]
Качество видео: DVDRip
Контейнер: AVI
Видео кодек: XviD
Аудио кодек: MP3
Видео: 720×404 (1.78:1), 25 fps, XviD MPEG-4 ~1200 kbps avg, ~0.18 bit/pixel
Аудио RUS: MP3 48000Hz stereo 128kbps
Аудио ENG: MP3 48000Hz stereo 128kbps
Сериал 5 раз номинировался на премию Эмми, а в 2002 году Майкл Чиклис получил её. В 2002 году сериал получил 2 премии Золотой глобус в категориях Лучший телевизионный драматический сериал и за лучшего актёра сериала (драма). Сериал ещё трижды номинировался на Золотой глобус. В 2006 году сериал выиграл Peabody Award. Последний сезон получил в 2008 году награду AFI Award.
General
Complete name : F:\Serials - Сериалы\Shield - Щит\the.shield.s01.dvdrip.rus(dtv).eng.novafilm.tv\the.shield.s01e01.dvdrip.rus(dtv).eng.novafilm.tv.avi
Format : AVI
Format/Info : Audio Video Interleave
File size : 501 MiB
Duration : 44mn 19s
Overall bit rate : 1 580 Kbps
Writing application : VirtualDubMod 1.5.10.2 (build 2542/release)
Writing library : VirtualDubMod build 2542/release
Video
ID : 0
Format : MPEG-4 Visual
Format profile : Advanced [email protected]
Format settings, BVOP : 2
Format settings, QPel : Yes
Format settings, GMC : No warppoints
Format settings, Matrix : Default (H.263)
Muxing mode : Packed bitstream
Codec ID : XVID
Codec ID/Hint : XviD
Duration : 44mn 19s
Bit rate : 1 309 Kbps
Width : 720 pixels
Height : 404 pixels
Display aspect ratio : 16:9
Frame rate : 25.000 fps
Color space : YUV
Chroma subsampling : 4:2:0
Bit depth : 8 bits
Scan type : Progressive
Compression mode : Lossy
Bits/(Pixel*Frame) : 0.180
Stream size : 415 MiB (83%)
Writing library : XviD 1.2.1 (UTC 2008-12-04)
Audio #1
ID : 1
Format : MPEG Audio
Format version : Version 1
Format profile : Layer 3
Mode : Joint stereo
Mode extension : MS Stereo
Codec ID : 55
Codec ID/Hint : MP3
Duration : 44mn 19s
Bit rate mode : Constant
Bit rate : 128 Kbps
Channel(s) : 2 channels
Sampling rate : 48.0 KHz
Compression mode : Lossy
Stream size : 40.6 MiB (8%)
Alignment : Aligned on interleaves
Interleave, duration : 40 ms (1.00 video frame)
Interleave, preload duration : 504 ms
Audio #2
ID : 2
Format : MPEG Audio
Format version : Version 1
Format profile : Layer 3
Mode : Joint stereo
Mode extension : MS Stereo
Codec ID : 55
Codec ID/Hint : MP3
Duration : 44mn 19s
Bit rate mode : Constant
Bit rate : 128 Kbps
Channel(s) : 2 channels
Sampling rate : 48.0 KHz
Compression mode : Lossy
Stream size : 40.6 MiB (8%)
Alignment : Aligned on interleaves
Interleave, duration : 40 ms (1.00 video frame)
Interleave, preload duration : 504 ms
Download / Скачать

Хотите скачать бесплатно? Зарегистрируйтесь на сайте (ссылка на регистрацию). Pirat.ca - самый быстрый торрент трекер в рунете!

Как скачивать  ·   Что такое торрент  ·   Рейтинг и ограничения

Dexter Morgan

Шкипер

Пост 12-Май-2013 21:43 (спустя 5 часов)

[Q] 

Как сериал? Оценки внушительные, но правдивы ли они?
[Профиль]  [ЛС] 

UrbanVampire ®

Корсар

1077

Пост 12-Май-2013 22:34 (спустя 50 минут)

[Q] 

368631Как сериал? Оценки внушительные, но правдивы ли они?
очень необычный для штатов. в отличие от стандартных USA-шных сериалов про копов, в которых персонажи либо супергерои либо простые но честные парни со стальными взглядами, The Shield - история про коррумпированное подразделение. это с одной стороны, а с другой - эти копы действительно следят за порядком на своих улицах. нет деления на черное и белое, всё неоднозначно.
попробуйте первый сезон, если понравится - смотрите дальше.
кстати, сериал не обрывается на пустом месте, он вполне логически завершен.
[Профиль]  [ЛС] 

krendel1973

Флибустьер

Пост 15-Май-2013 08:05 (спустя 2 дня 9 часов)

[Q] 

[Профиль]  [ЛС] 

Dexter Morgan

Шкипер

Пост 18-Май-2013 11:18 (спустя 3 дня)

[Q] 

UrbanVampire, Спасибо, будем пробовать.
[Профиль]  [ЛС] 

Андря

8409

Пост 18-Май-2016 13:07 (спустя 3 года)

[Q] 

Полного источника не было: 3 месяца 23 дня

_________________
Като Тешекика
[Профиль]  [ЛС] 
Показать сообщения:    
Ответить на тему

Текущее время: Сегодня 06:23

Часовой пояс: GMT + 4



Вы не можете начинать темы
Вы не можете отвечать на сообщения
Вы не можете редактировать свои сообщения
Вы не можете удалять свои сообщения
Вы не можете голосовать в опросах
Вы не можете прикреплять файлы к сообщениям
Вы не можете скачивать файлы

▼ Вниз