ML
     
  Уважаемый Гость!
Вы можете поддержать проект и зарегистрироваться у наших партнеров - онлайн-стратегия MyLands. При регистрации в игре Вы получите код, который сможете активировать после регистрации на pirat.ca и получить 1000 дублонов.

Ваш код:
a978488e62322cd72e113ab723b8a7fdc10eb9b9
 
     

Щит / Shield (Сезон 6 Серии 1-10 из 10) (Шон Райан / Shawn Ryan) [2007 г., Криминальная драма, DVDRip] MVO [+ Original (Eng)] (СТС)

Ответить на тему
 
Автор
Сообщение

Пост 12-Май-2013 19:15

[Q] 

UrbanVampire

Корсар

Щит / Shield
Сезон 6, Серии 1-10 из 10
Производство: США, FX
Жанр: Криминальная драма
Год выпуска: 2007 г.
Продолжительность: ~44 мин. / серия
Перевод: Профессиональный (многоголосый, закадровый) [СТС]
Оригинальный аудиопоток: английский
Автор сериала: Шон Райан / Shawn Ryan
В ролях: Майкл Чиклис (Detective Vic Mackey), Катрин Дент (Officer Danni Sofer), Уолтон Гоггинс (Detective Shane Vendrell), Майкл Джейс (Officer Julien Lowe), Джей Карнс (Detective Holland Wagenbach), Бенито Мартинес (Captain David Aceveda), Си Си Эйч Паундер (Detective Claudette Wyms), Кэти Калин Райан (Corrine Mackey), Дэвид Риис Снелл (Detective Ronnie Gardocki), Кенни Джонсон (Detective Curtis Lemansky) и др.
Описание: Криминальная драма о полицейских. Нарушены все клише жанра, ведь героям приходится искать свой путь в жестоком мире, очень похожем на реальный, где принципы морали размыты и неопределённы, а граница между добром и злом пересекается каждый день.
Полицейские Лос-Анджелеса готовы на всё, чтобы сохранить порядок на улицах и защитить мирных граждан от криминала. Ради этой благородной цели крутым копам нередко приходится действовать вопреки законам. Дорога к справедливости бывает извилистой! Но всегда ли цель оправдывает средства, и можно ли бороться с преступностью преступными методами?

[Щит 1] [Щит 2] [Щит 3] [Щит 4] [Щит 5] [Щит 6] [Щит 7]
Качество видео: DVDRip
Контейнер: AVI
Видео кодек: XviD
Аудио кодек: MP3
Видео: 640×352 (1.82:1), 25 fps, XviD MPEG-4 850 kbps avg, 0.15 bit/pixel
Аудио RUS: MP3 48000Hz stereo 128kbps
Аудио ENG: MP3 48000Hz stereo 128kbps
Сериал 5 раз номинировался на премию Эмми, а в 2002 году Майкл Чиклис получил её. В 2002 году сериал получил 2 премии Золотой глобус в категориях Лучший телевизионный драматический сериал и за лучшего актёра сериала (драма). Сериал ещё трижды номинировался на Золотой глобус. В 2006 году сериал выиграл Peabody Award. Последний сезон получил в 2008 году награду AFI Award.
General
Complete name : F:\Serials - Сериалы\Shield - Щит\the.shield.s06.dvdrip.rus.eng.novafilm.tv\the.shield.s06e01.dvdrip.rus.eng.novafilm.tv.avi
Format : AVI
Format/Info : Audio Video Interleave
File size : 396 MiB
Duration : 48mn 52s
Overall bit rate mode : Variable
Overall bit rate : 1 133 Kbps
Writing application : VirtualDubMod 1.5.10.2 (build 2542/release)
Writing library : VirtualDubMod build 2542/release
Video
ID : 0
Format : MPEG-4 Visual
Format profile : Advanced [email protected]
Format settings, BVOP : 1
Format settings, QPel : No
Format settings, GMC : No warppoints
Format settings, Matrix : Default (H.263)
Muxing mode : Packed bitstream
Codec ID : XVID
Codec ID/Hint : XviD
Duration : 48mn 52s
Bit rate : 853 Kbps
Width : 640 pixels
Height : 352 pixels
Display aspect ratio : 16:9
Frame rate : 25.000 fps
Color space : YUV
Chroma subsampling : 4:2:0
Bit depth : 8 bits
Scan type : Progressive
Compression mode : Lossy
Bits/(Pixel*Frame) : 0.151
Stream size : 298 MiB (75%)
Writing library : XviD 1.1.2 (UTC 2006-11-01)
Audio #1
ID : 1
Format : MPEG Audio
Format version : Version 1
Format profile : Layer 3
Mode : Joint stereo
Mode extension : MS Stereo
Codec ID : 55
Codec ID/Hint : MP3
Duration : 48mn 52s
Bit rate mode : Constant
Bit rate : 128 Kbps
Channel(s) : 2 channels
Sampling rate : 48.0 KHz
Compression mode : Lossy
Stream size : 44.7 MiB (11%)
Alignment : Aligned on interleaves
Interleave, duration : 40 ms (1.00 video frame)
Interleave, preload duration : 504 ms
Audio #2
ID : 2
Format : MPEG Audio
Format version : Version 1
Format profile : Layer 3
Mode : Joint stereo
Codec ID : 55
Codec ID/Hint : MP3
Duration : 48mn 52s
Bit rate mode : Variable
Bit rate : 135 Kbps
Nominal bit rate : 128 Kbps
Channel(s) : 2 channels
Sampling rate : 48.0 KHz
Compression mode : Lossy
Stream size : 47.2 MiB (12%)
Alignment : Aligned on interleaves
Interleave, duration : 24 ms (0.60 video frame)
Interleave, preload duration : 136 ms
Writing library : LAME3.96r
Encoding settings : -m j -V 4 -q 3 -lowpass 17.5 --abr 128
Download / Скачать

Хотите скачать бесплатно? Зарегистрируйтесь на сайте (ссылка на регистрацию). Pirat.ca - самый быстрый торрент трекер в рунете!

Как скачивать  ·   Что такое торрент  ·   Рейтинг и ограничения

Андря

8410

Пост 18-Май-2016 13:06 (спустя 3 года)

[Q] 

Полного источника не было: 5 месяцев 20 дней

_________________
Като Тешекика
[Профиль]  [ЛС] 
Показать сообщения:    
Ответить на тему

Текущее время: Сегодня 22:09

Часовой пояс: GMT + 4



Вы не можете начинать темы
Вы не можете отвечать на сообщения
Вы не можете редактировать свои сообщения
Вы не можете удалять свои сообщения
Вы не можете голосовать в опросах
Вы не можете прикреплять файлы к сообщениям
Вы не можете скачивать файлы

▼ Вниз