ML
     
  Уважаемый Гость!
Вы можете поддержать проект и зарегистрироваться у наших партнеров - онлайн-стратегия MyLands. При регистрации в игре Вы получите код, который сможете активировать после регистрации на pirat.ca и получить 1000 дублонов.

Ваш код:
6f9ab67d502902cc72a06c406977ddb589b7f39d
 
     

На зов скорби / Они вернулись / Les Revenants / Сезон: 1 / Серии: 1-8 из 8 (Фабрис Гобер/Fabrice Gobert, Фридерик Мерму/Frédéric Mermoud) [2012 г., фантастика, триллер, драма, ужасы, WEB-DL] MVO [+ Original (Fre)] (Agatha Studdio)

Ответить на тему
 
Автор
Сообщение

Пост 27-Май-2013 21:36

[Q] 

kloctuk

-На зов скорби / Они вернулись / Les Revenants-- Производство: Франция, Canal+
Жанр: фантастика, триллер, драма, ужасы
Год выпуска: 2012 г.
Продолжительность: 00.55
Перевод: Профессиональный (многоголосый, закадровый) [Agatha Studdio]
Оригинальный аудиопоток: французский
Режиссер: Фабрис Гобер/Fabrice Gobert , Фридерик Мерму/Frédéric Mermoud-В ролях: Самир Гесми (Томас), Селин Саллетт (Жюли), Дженна Тиам (Лена), Гийом Гуи (Серж), Грегори Гадебуа (Тони), Ана Жирардо (Люси), Пьер Перрье (Симон), Клотильда Эсме (Адель), Аликс Пуасон (Лора), Анн Косиньи (Клэр), Фредерик Пьеро (Жером), Swann Nambotin (Виктор), Yara Pilartz (Камилла), Jean-Francois Sivadier (Пьер)-Описание: В небольшой альпийской деревушке, растерянные люди пытаются вернуться домой. Они ещё не знают, что мертвы уже несколько лет. Вернувшиеся полны решимости вернуть себе место в мире живых. Но, похоже, воскресли не только мирные жители. Их возврат совпадает с серией жестоких убийств, похожих на дело рук серийного убийцы из прошлого. И на этом нарушения в естественном ходе вещей не заканчиваются...-
Качество видео: WEB-DL
Контейнер: AVI
Видео кодек: XviD
Аудио кодек: MP3
Видео: 720x400 (1.80:1), 25 fps, XviD build 64 ~1570 kbps avg, 0.22 bit/pixel
Аудио: RUS: 48 kHz, MPEG Layer 3, 2 ch, ~192.00 kbps avg
Аудио #2: FRA: 48 kHz, MPEG Layer 3, 2 ch, ~192.00 kbps avg
Cубтитры: отсутствуют
Вроде бы и приблизил нас интернет к мировому искусству — можно послушать музыку африканских музыкантов например или посмотреть южноамериканского арт-хауса. Но даже так, на отличный вообщем-то сериал из не последней по культурным меркам страны Европы, наткнуться непросто. Нужна реклама или рекомендация. В случае с Les Revenants, ни много ни мало лучшей новинкой сезона, помогли Mogwai, шотландские умницы, изобретатели пост-рока. Они записали альбом-саундтрек к сериалу, и через эту пластинку сабж и попал к зрителю, готовому смотреть в оригинале с субтитрами.
Как уже понятно из синопсиса, Les Revenants очередное творение на тему взаимодействия живых и мертвых. Но, в отличии от популярных франшиз про вампиров и зомби, произведение по-настоящему многослойное. Можно смотреть и как триллер, и как мистику, и как драму. Или все сразу. Почему в тихий французский городок ни с того ни с сего начали возвращаться умершие? Виновата ли трагедия 35летней давности? Или у них остался человек, так и не смирившийся с потерей близкого? Почему падает уровень воды в водохранилище, а из засорившихся труб лезут тараканы? Считается ли живым человек мертвый внутри? Вопросов уйма, не все ответы разжеваны даже по окончанию. Но следить и пытаться ответить самому крайне интересно. Нагнетанию напряжения способствуют перманентно затянутые тучами облака, общий недостаток света и жизни, а также пассажи Mogwai, от чего кто-то припомнит Линча, а кто-то и Сайлент Хилл (а такие сравнения уже комплимент сериалу).
А еще сериал европейский, от того без цензуры. Кровавые раны и струпья ближней камерой. Насилие без сглаживающих углов. Ну и обнаженка — это вам не США, где в кино после секса из-под одеяла вылезают одетыми. К слову, автор Бесстыдников уже выкупил права на римейк. Сгладят, упростят и в этом варианте будет популярно как и в случае с Forbrydelsen/The Killing. Я все же рекомендую смотреть эту версию, хороша черт возьми. Ведь даже при всей моей нелюбви ко всему французском (шибко бесит их сквозящее отовсюду высокомерие и язык считаю противным) считаю Les Revenants лучшим сериалом на тему.
Смотреть всем. (Ханно, надыбал на страницах рунета)
Общее
Полное имя : N:\фильмы\Les.Revenants.s01_Agatha.Studdio\Les.Revenants.s01e08_Agatha.Studdio.avi
Формат : AVI
Формат/Информация : Audio Video Interleave
Размер файла : 747 Мбайт
Продолжительность : 52 м.
Общий поток : 1978 Кбит/сек
Видео
Идентификатор : 0
Формат : MPEG-4 Visual
Профиль формата : Advanced [email protected]
Параметр BVOP формата : 2
Параметр QPel формата : Нет
Параметр GMC формата : Без точки перехода
Параметр матрицы формата : Default (H.263)
Идентификатор кодека : XVID
Идентификатор кодека/Подсказка : XviD
Продолжительность : 52 м.
Битрейт : 1572 Кбит/сек
Ширина : 720 пикселей
Высота : 400 пикселей
Соотношение сторон : 16:9
Частота кадров : 25,000 кадров/сек
Цветовое пространство : YUV
Субдискретизация насыщенности : 4:2:0
Битовая глубина : 8 бит
Тип развёртки : Прогрессивная
Метод сжатия : С потерями
Бит/(Пиксели*Кадры) : 0.218
Размер потока : 593 Мбайт (79%)
Библиотека кодирования : XviD 1.2.1 (UTC 2008-12-04)
Аудио #1
Идентификатор : 1
Формат : MPEG Audio
Версия формата : Version 1
Профиль формата : Layer 3
Идентификатор кодека : 55
Идентификатор кодека/Подсказка : MP3
Продолжительность : 52 м.
Продолжительность оригинала : 52 м.
Вид битрейта : Постоянный
Битрейт : 192 Кбит/сек
Каналы : 2 канала
Частота : 48,0 КГц
Метод сжатия : С потерями
Размер потока : 72,5 Мбайт (10%)
Выравнивание : Соединение по промежуткам
Продолжительность промежутка : 24 мс. (0,60 видеокадр)
Аудио #2
Идентификатор : 2
Формат : MPEG Audio
Версия формата : Version 1
Профиль формата : Layer 3
Идентификатор кодека : 55
Идентификатор кодека/Подсказка : MP3
Продолжительность : 52 м.
Продолжительность оригинала : 52 м.
Вид битрейта : Постоянный
Битрейт : 192 Кбит/сек
Каналы : 2 канала
Частота : 48,0 КГц
Метод сжатия : С потерями
Размер потока : 72,5 Мбайт (10%)
Выравнивание : Соединение по промежуткам
Продолжительность промежутка : 24 мс. (0,60 видеокадр)
Download / Скачать

Хотите скачать бесплатно? Зарегистрируйтесь на сайте (ссылка на регистрацию). Pirat.ca - самый быстрый торрент трекер в рунете!

Как скачивать  ·   Что такое торрент  ·   Рейтинг и ограничения

kloctuk ®

3302

Пост 27-Май-2013 22:50 (спустя 1 час 13 минут)

[Q] 

Делаю все как всегда, НО "Полного источника не было: Никогда"
Перезалил тореент и снова скачал, все на 100% совпало... Что не так, кто подскажет?
__________________________________________________________________
Удалось... А то думал зопа )))

_________________
-выстрели еще разок. -зачем? - его душа еще танцует...
[Профиль]  [ЛС] 

Пост 27-Май-2013 23:09 (спустя 19 минут)

Топик был перенесен из форума Зарубежные сериалы (Трюм) в форум Зарубежные сериалы

kugesan
 

kloctuk ®

3302

Пост 28-Май-2013 00:49 (спустя 1 час 59 минут)

[Q] 

Раздачу продолжу завтра с девяти утра, извиняюсь, если кто хотел докачать и просмотреть сегодня...

_________________
-выстрели еще разок. -зачем? - его душа еще танцует...
[Профиль]  [ЛС] 

igra

Корсар

Пост 08-Июл-2013 21:19 (спустя 1 месяц 11 дней)

[Q] 

Ничего такой,с мистикой в порядке все.
[Профиль]  [ЛС] 

янка-сан

Гроза морей

Пост 18-Дек-2015 19:41 (спустя 2 года 5 месяцев)

[Q] 

спасибо Автору респект!!! Лови бочку
[Профиль]  [ЛС] 
Показать сообщения:    
Ответить на тему

Текущее время: Сегодня 16:33

Часовой пояс: GMT + 4



Вы не можете начинать темы
Вы не можете отвечать на сообщения
Вы не можете редактировать свои сообщения
Вы не можете удалять свои сообщения
Вы не можете голосовать в опросах
Вы не можете прикреплять файлы к сообщениям
Вы не можете скачивать файлы

▼ Вниз