ML
     
  Уважаемый Гость!
Вы можете поддержать проект и зарегистрироваться у наших партнеров - онлайн-стратегия MyLands. При регистрации в игре Вы получите код, который сможете активировать после регистрации на pirat.ca и получить 1000 дублонов.

Ваш код:
2932e5898d0a27592397f70b82a5834d1e70ea19
 
     

Сошедшие с небес / Falling Skies / Сезон: 1 / Серии: 1-10 из 10 (Грег Биман / Greg Beeman) [2011 г., Фантастика, Боевик, Триллер, HDTVRip] MVO (LostFilm)

Ответить на тему
 
Автор
Сообщение

Пост 15-Июн-2013 00:37

[Q] 

kloctuk

-Сошедшие с небес / Falling Skies-- Производство: США, Канада
Жанр: Фантастика, Боевик, Триллер
Год выпуска: 2011 г.
Продолжительность: 10х00:41
Перевод: Профессиональный (многоголосый, закадровый) [LostFilm]
Режиссер: Грег Биман / Greg Beeman-В ролях: Колин Каннингэм, Максим Найт, Ноа Уайл, Мун Бладгуд, Мфо Коахо, Сара Картер, Коннор Джессуп, Брюс Грэй, Дейл Дай, Дрю Рой-Описание: В результате инопланетного вторжения на Землю один из сыновей профессора истории Тома Мэйсона попадает в плен, а его жена гибнет. Она оказалась одной из миллионов людей, погибших от рук пришельцев. Люди, которым посчастливилось остаться в живых, вступают в партизанские отряды, объединяются для оказания сопротивления захватчикам.
Землю атакуют два вида инопланетян – прямоходящие, прекрасно вооруженные роботы Mechs и насекомоподобные Skitters. Людям приходится несладко, а борьба с незваными гостями становится все сложнее из-за того, что последние используют современное оборудование, с помощью которого можно легко определить местонахождение больших групп людей. Именно поэтому остается одна надежда на партизан, которые боролись с противником небольшими группами. Немалых усилий, а часто и человеческих жизней стоит выявление слабых сторон захватчиков.-
Качество видео: HDTVRip
Контейнер: AVI
Видео кодек: XviD
Аудио кодек: MP3
Видео: 720x400 (1.80:1), 23.976 fps, XviD MPEG-4 ~1272 kbps avg, 0.18 bit/pixel
Аудио: 48 kHz, MPEG Layer 3, 2 ch, ~189.11 kbps avg
Cубтитры: отсутствуют
Код:
Общее
Полное имя                               : M:\фильмы\falling_skies_s01_lostFilm\falling_skies_s01e01_02_lostFilm.avi
Формат                                   : AVI
Формат/Информация                        : Audio Video Interleave
Размер файла                             : 873 Мбайт
Продолжительность                        : 1 ч. 22 м.
Режим общего битрейта                    : Переменный
Общий поток                              : 1475 Кбит/сек
Программа кодирования                    : Nandub v1.0rc2
Библиотека кодирования                   : Nandub build 1853/release
Видео
Идентификатор                            : 0
Формат                                   : MPEG-4 Visual
Профиль формата                          : [email protected]
Параметр BVOP формата                    : Нет
Параметр QPel формата                    : Нет
Параметр GMC формата                     : Без точки перехода
Параметр матрицы формата                 : Default (H.263)
Идентификатор кодека                     : XVID
Идентификатор кодека/Подсказка           : XviD
Продолжительность                        : 1 ч. 22 м.
Битрейт                                  : 1273 Кбит/сек
Ширина                                   : 720 пикселей
Высота                                   : 400 пикселей
Соотношение сторон                       : 16:9
Частота кадров                           : 23,976 кадра/сек
Цветовое пространство                    : YUV
Субдискретизация насыщенности            : 4:2:0
Битовая глубина                          : 8 бит
Тип развёртки                            : Прогрессивная
Метод сжатия                             : С потерями
Бит/(Пиксели*Кадры)                      : 0.184
Размер потока                            : 754 Мбайт (86%)
Библиотека кодирования                   : XviD 1.2.1 (UTC 2008-12-04)
Аудио
Идентификатор                            : 1
Формат                                   : MPEG Audio
Версия формата                           : Version 1
Профиль формата                          : Layer 3
Режим                                    : Joint stereo
Расширение режима                        : MS Stereo
Идентификатор кодека                     : 55
Идентификатор кодека/Подсказка           : MP3
Продолжительность                        : 1 ч. 22 м.
Вид битрейта                             : Переменный
Битрейт                                  : 192 Кбит/сек
Каналы                                   : 2 канала
Частота                                  : 48,0 КГц
Метод сжатия                             : С потерями
Размер потока                            : 112 Мбайт (13%)
Выравнивание                             : Соединение по промежуткам
Продолжительность промежутка             : 24  мс. (0,58 видеокадр)
Время предзагрузки промежутка            : 467  мс.
Библиотека кодирования                   : LAME3.97b
Настройки программы                      : -m j -V 4 -q 3 -lowpass 18.6 --abr 192
Download / Скачать

Хотите скачать бесплатно? Зарегистрируйтесь на сайте (ссылка на регистрацию). Pirat.ca - самый быстрый торрент трекер в рунете!

Как скачивать  ·   Что такое торрент  ·   Рейтинг и ограничения

Пост 15-Июн-2013 17:50 (спустя 17 часов)

Топик был перенесен из форума Зарубежные сериалы (Трюм) в форум Зарубежные сериалы

kugesan
 

allexxxv

Морской Волк

Пост 20-Июн-2013 16:47 (спустя 5 дней)

[Q] 

[Профиль]  [ЛС] 

kloctuk ®

3312

Пост 25-Июн-2013 13:47 (спустя 4 дня)

[Q] 

385402
Приятного просмотра...

_________________
-выстрели еще разок. -зачем? - его душа еще танцует...
[Профиль]  [ЛС] 

Пират

Шкипер

Пост 13-Янв-2014 00:03 (спустя 6 месяцев 17 дней)

[Q] 

1 сезон самый бодрый
[Профиль]  [ЛС] 

sergej 1340

Морской Волк

Пост 19-Фев-2014 21:41 (спустя 1 месяц 6 дней)

[Q] 

спасибо Автору респект!!!
[Профиль]  [ЛС] 
Показать сообщения:    
Ответить на тему

Текущее время: Сегодня 08:02

Часовой пояс: GMT + 4



Вы не можете начинать темы
Вы не можете отвечать на сообщения
Вы не можете редактировать свои сообщения
Вы не можете удалять свои сообщения
Вы не можете голосовать в опросах
Вы не можете прикреплять файлы к сообщениям
Вы не можете скачивать файлы

▼ Вниз