ML
     
  Уважаемый Гость!
Вы можете поддержать проект и зарегистрироваться у наших партнеров - онлайн-стратегия MyLands. При регистрации в игре Вы получите код, который сможете активировать после регистрации на pirat.ca и получить 1000 дублонов.

Ваш код:
47bfc18b89c74e4ae0d974e9b6943639e2bff08e
 
     

Город Мечты / Magic City (Сезон 2, полный, 8 Серий) [LostFilm] (Эдвард Бьянчи / Edward Bianchi...) [2013 г.] (Драма, Криминал, Детектив) [HDTVRip] (MVO)

Ответить на тему
 
Автор
Сообщение

Пост 17-Июн-2013 20:44

[Q] 

kugesan

Город Мечты / Magic City
«Miami Beach, 1959. The beautiful life is about to get ugly.»
- Русское название: Город Мечты
Оригинальное название: Magic City
Страна: США
Год выпуска: 2013
Жанр: Драма, Криминал, Детектив ...-Озвучка: Студия LostFilm
Перевод: Многоголосый закадровый, профессиональный-Режиссер: Эдвард Бьянчи / Edward Bianchi, Саймон Селлан Джоунс / Simon Cellan Jones, Дэвид Петрарка / David Petrarca
В главных ролях:
Джеффри Дин Морган, Ольга Куриленко, Стивен Стрейт, Джессика Маре, Кристиан Кук, Елена Сатине, Доминик Гарсиа-Лоридо, Тейлор Блэкуелл, Дэнни Хьюстон, Юл Васкез ...-Описание фильма:
Сериал расскажет о самом шикарном заведении Майами Бич тех времен — отеле «Мирамар», куда на празднование Нового года приезжает сам «Мистер голубые глаза», то есть Фрэнк Синатра. Забот у управляющего делами отеля — Айка Эванса — полон рот, ибо ему приходится решать то и дело возникающие проблемы как с мафией, так и с собственной семьей, не отличающейся хорошим поведением. К слову, отель Мирамар имеет как светлую, так и темную стороны: днем — это место для выступления ныряющих клоунов и для занятий ча-ча-ча, а ночью он становится пристанищем для гангстеров и их антагонистов, то есть представителей ФБР и иных структур, наркоманов и дилеров, стриптизерш, собирающихся вместе для того, чтобы насладиться великолепным развлекательным шоу, что предлагает программа отеля. Одновременно с тем, всего лишь в 320 километрах от побережья Майами разворачиваются не менее драматические события: команданте Фидель Кастро захватывает власть на Кубе…-Сезон: 2
Серии: 8 из 8 серий
Продолжительность: ~ 00:53:00 мин серия-Качество видео: HDTVRip
Контейнер: AVI
Видео кодек: XviD
Аудио кодек: MP3
Видео: MPEG-4 Visual at 1289 Кбит/сек, 720 x 400 (1.800) at 23.976 fps
Аудио: MPEG Audio at 192 Кбит/сек, 2 канала, 48,0 КГц
Cубтитры: отсутствуют
- -
  • Преступление и наказание (Crime and Punishment)
  • Ангелы смерти (Angels of Death)
  • Смирись или умри (Adapt or Die)
  • На распутье (Crossroads)
  • Мир меняется (World in Changes)
  • Сидя на вершине мира (Sitting on Top of the World)
  • ...А врагов еще ближе (...And Your Enemies Closer)
  • Грехи отцов (The Sins of the Father)
-
Код:
Общее
Полное имя                               : E:\_Сериалы\Город Мечты (Magic City)\Magic.City.S02.LostFilm\Magic.City.S02E01.rus.LostFilm.TV.avi
Формат                                   : AVI
Формат/Информация                        : Audio Video Interleave
Размер файла                             : 567 Мбайт
Продолжительность                        : 53 м.
Режим общего битрейта                    : Переменный
Общий поток                              : 1487 Кбит/сек
Программа кодирования                    : Nandub v1.0rc2
Библиотека кодирования                   : Nandub build 1853/release
Видео
Идентификатор                            : 0
Формат                                   : MPEG-4 Visual
Профиль формата                          : [email protected]
Параметр BVOP формата                    : Нет
Параметр QPel формата                    : Нет
Параметр GMC формата                     : Без точки перехода
Параметр матрицы формата                 : Default (H.263)
Идентификатор кодека                     : XVID
Идентификатор кодека/Подсказка           : XviD
Продолжительность                        : 53 м.
Битрейт                                  : 1289 Кбит/сек
Ширина                                   : 720 пикселей
Высота                                   : 400 пикселей
Соотношение сторон                       : 16:9
Частота кадров                           : 23,976 кадра/сек
Цветовое пространство                    : YUV
Субдискретизация насыщенности            : 4:2:0
Битовая глубина                          : 8 бит
Тип развёртки                            : Прогрессивная
Метод сжатия                             : С потерями
Бит/(Пиксели*Кадры)                      : 0.187
Размер потока                            : 491 Мбайт (87%)
Библиотека кодирования                   : XviD 1.2.1 (UTC 2008-12-04)
Аудио
Идентификатор                            : 1
Формат                                   : MPEG Audio
Версия формата                           : Version 1
Профиль формата                          : Layer 3
Режим                                    : Joint stereo
Идентификатор кодека                     : 55
Идентификатор кодека/Подсказка           : MP3
Продолжительность                        : 53 м.
Вид битрейта                             : Переменный
Битрейт                                  : 192 Кбит/сек
Каналы                                   : 2 канала
Частота                                  : 48,0 КГц
Метод сжатия                             : С потерями
Размер потока                            : 70,7 Мбайт (12%)
Выравнивание                             : Соединение по промежуткам
Продолжительность промежутка             : 24  мс. (0,58 видеокадр)
Время предзагрузки промежутка            : 532  мс.
Библиотека кодирования                   : LAME3.97b
Настройки программы                      : -m j -V 4 -q 3 -lowpass 18.6 --abr 192
-
-Скриншоты:
-
-
-
Внимание! Раздача ведётся путём добавления новых серий; при каждом добавлении создётся новый торрент. Чтобы начать докачку новой серии, пользователям необходимо сделать следующее:
(1) остановить скачивание,
(2) удалить старый торрент у себя из клиента (старые серии удалять не надо),
(3) скачать новый торрент и запустить его у себя в клиенте вместо старого, при этом указать клиенту путь в старую папку куда и должно происходить скачивание новых серий.
Ваш клиент при этом должен произвести хеширование (проверку) старой папки (если не производит сам - помогите ему сделать это), и будет докачивать только те серии которых у вас ещё нет. Старые серии при этом не удаляются, а продолжают раздаваться!
Eсли вы уже удалили старые серии, то предотвратить повторную закачку старых серий можно, отжав галочку в соответствующих местах при запуске нового торрента.
-Добавлена восьмая, заключительная, серия второго сезона
Download / Скачать

Хотите скачать бесплатно? Зарегистрируйтесь на сайте (ссылка на регистрацию). Pirat.ca - самый быстрый торрент трекер в рунете!

Как скачивать  ·   Что такое торрент  ·   Рейтинг и ограничения



Последний раз редактировалось: kugesan (2013-08-28 16:27), всего редактировалось 6 раз(а)

kugesan ®

56710

Пост 24-Июн-2013 23:10 (спустя 7 дней)

[Q] 

Добавлена седьмая серия

_________________

В мире две бесконечности: вселенная и человеческая глупость - Альберт Эйнштен
«Можно вытащить человека из грязи, но нельзя вытащить грязь из человека»!
[Профиль]  [ЛС] 

MaXoR

Флибустьер

1475

Пост 28-Авг-2013 12:03 (спустя 2 месяца 3 дня)

[Q] 

Братишка, раздай!?

_________________
Живы будем - не помрем!
[Профиль]  [ЛС] 

kugesan ®

56710

Пост 28-Авг-2013 16:28 (спустя 4 часа)

[Q] 

Добавлена восьмая, заключительная, серия второго сезона

_________________

В мире две бесконечности: вселенная и человеческая глупость - Альберт Эйнштен
«Можно вытащить человека из грязи, но нельзя вытащить грязь из человека»!
[Профиль]  [ЛС] 
Показать сообщения:    
Ответить на тему

Текущее время: Сегодня 07:04

Часовой пояс: GMT + 4



Вы не можете начинать темы
Вы не можете отвечать на сообщения
Вы не можете редактировать свои сообщения
Вы не можете удалять свои сообщения
Вы не можете голосовать в опросах
Вы не можете прикреплять файлы к сообщениям
Вы не можете скачивать файлы

▼ Вниз