ML
     
  Уважаемый Гость!
Вы можете поддержать проект и зарегистрироваться у наших партнеров - онлайн-стратегия MyLands. При регистрации в игре Вы получите код, который сможете активировать после регистрации на pirat.ca и получить 1000 дублонов.

Ваш код:
5af7de75d3db09b6a37bc8bab71b0e87ccde73d6
 
     

Не верь су*** из квартиры 23 / Don't Trust the B---- in Apartment 23 / Сезон: 1 / Серии: 7 из 7 (Крис Кох / Chris Koch) [2012 г., Комедия, WEB-DL] DVO [FanFilm] [+ Original (Eng)]

Ответить на тему
 
Автор
Сообщение

Пост 24-Июн-2013 23:56

[Q] 

kloctuk

-Не верь су*** из квартиры 23 / Don't Trust the B---- in Apartment 23-- Производство: США
Жанр: Комедия
Год выпуска: 2012 г.
Продолжительность: 7х00:22
Перевод: Любительский (двухголосый, закадровый) [FanFilm]
Оригинальный аудиопоток: английский
Режиссер: Крис Кох / Chris Koch-В ролях: Кристен Риттер, Дрима Уокер, Джеймс Ван Дер Бик, Майкл Блейклок, Эрик Андре, Рэй Форд, Лиза Лапира, Ив Гордон, Питер Маккензи, Дженни Пирсон-Описание: Однокамерная комедия рассказывает о Джун, искренней, честной и оптимистичной провинциальной девушке, которая по независящим от неё причинам была вынуждена съехаться с привлекательной и крайне непостоянной тусовщицей из Нью-Йорка, взгляды которой больше похожи на пиратские.-
Качество видео: WEB-DL
Контейнер: MKV
Видео кодек: H.264
Аудио кодек: MP3
Видео: 1280x720 (16:9), 23,976 fps, V_MPEG4/ISO/AVC [email protected], 3980 kbps, 0.180 bit/pixel
Аудио: 44,1 kHz, MP3, 2/0 (L,R) ch, ~192 kbps
Аудио #2: 48.0 kHz, AC3, 3/2 (L, C, R, l, r) + LFE ch, ~384 kbps
Cубтитры: отсутствуют
Общее
Уникальный идентификатор : 234947353197601011939550664985397733768 (0xB0C136DB90582683801DFAB84A8CA988)
Полное имя : N:\фильмы\Dont Trust the Bitch in Apartment 23 720p\Dont.Trust.the.Bitch.in.Apartment.23.S01E01.720p.[FanFilm].mkv
Формат : Matroska
Версия формата : Version 2
Размер файла : 720 Мбайт
Продолжительность : 21 м.
Общий поток : 4648 Кбит/сек
Дата кодирования : UTC 2012-05-13 10:00:02
Программа кодирования : mkvmerge v5.5.0 ('Healer') built on Apr 6 2012 21:43:24
Библиотека кодирования : libebml v1.2.3 + libmatroska v1.3.0
Видео
Идентификатор : 1
Формат : AVC
Формат/Информация : Advanced Video Codec
Профиль формата : [email protected]
Параметр CABAC формата : Нет
Параметр ReFrames формата : 2 кадра
Идентификатор кодека : V_MPEG4/ISO/AVC
Продолжительность : 21 м.
Битрейт : 3980 Кбит/сек
Ширина : 1280 пикселей
Высота : 720 пикселей
Соотношение сторон : 16:9
Режим частоты кадров : Постоянный
Частота кадров : 23,976 кадра/сек
Цветовое пространство : YUV
Субдискретизация насыщенности : 4:2:0
Битовая глубина : 8 бит
Тип развёртки : Прогрессивная
Бит/(Пиксели*Кадры) : 0.180
Размер потока : 617 Мбайт (86%)
Заголовок : Don't Trust The B---- In Apartment 23 - Season 1, Episode 1: Pilot
Язык : English
Default : Да
Forced : Нет
Основные цвета : BT.709
Характеристики трансфера : BT.709
Коэффициенты матрицы : BT.709
Аудио #1
Идентификатор : 2
Формат : MPEG Audio
Версия формата : Version 1
Профиль формата : Layer 3
Режим : Joint stereo
Расширение режима : MS Stereo
Идентификатор кодека : A_MPEG/L3
Идентификатор кодека/Подсказка : MP3
Продолжительность : 21 м.
Вид битрейта : Постоянный
Битрейт : 192 Кбит/сек
Каналы : 2 канала
Частота : 44,1 КГц
Метод сжатия : С потерями
Размер потока : 29,8 Мбайт (4%)
Библиотека кодирования : LAME3.98.2
Default : Да
Forced : Нет
Аудио #2
Идентификатор : 3
Формат : AC-3
Формат/Информация : Audio Coding 3
Расширение режима : CM (complete main)
Параметр Endianness формата : Big
Идентификатор кодека : A_AC3
Продолжительность : 21 м.
Вид битрейта : Постоянный
Битрейт : 384 Кбит/сек
Каналы : 6 каналов
Расположение каналов : Front: L C R, Side: L R, LFE
Частота : 48,0 КГц
Битовая глубина : 16 бит
Метод сжатия : С потерями
Размер потока : 59,5 Мбайт (8%)
Заголовок : Dolby Digital 5.1 @ 384 kbps
Язык : English
Default : Нет
Forced : Нет
Общее
Уникальный идентификатор : 207215935105252375332516236024205531490 (0x9BE456624B27174DB6B4E08F6117D962)
Полное имя : N:\фильмы\Dont Trust the Bitch in Apartment 23 720p\Dont.Trust.the.Bitch.in.Apartment.23.S01E02.720p.[FanFilm].mkv
Формат : Matroska
Версия формата : Version 2
Размер файла : 721 Мбайт
Продолжительность : 21 м.
Общий поток : 4746 Кбит/сек
Дата кодирования : UTC 2012-05-13 10:03:39
Программа кодирования : mkvmerge v5.5.0 ('Healer') built on Apr 6 2012 21:43:24
Библиотека кодирования : libebml v1.2.3 + libmatroska v1.3.0
Видео
Идентификатор : 1
Формат : AVC
Формат/Информация : Advanced Video Codec
Профиль формата : [email protected]
Параметр CABAC формата : Нет
Параметр ReFrames формата : 2 кадра
Идентификатор кодека : V_MPEG4/ISO/AVC
Продолжительность : 21 м.
Битрейт : 4076 Кбит/сек
Ширина : 1280 пикселей
Высота : 720 пикселей
Соотношение сторон : 16:9
Режим частоты кадров : Постоянный
Частота кадров : 23,976 кадра/сек
Цветовое пространство : YUV
Субдискретизация насыщенности : 4:2:0
Битовая глубина : 8 бит
Тип развёртки : Прогрессивная
Бит/(Пиксели*Кадры) : 0.184
Размер потока : 619 Мбайт (86%)
Заголовок : Don't Trust The B---- In Apartment 23 - Season 1, Episode 2: Daddy's Girl
Язык : English
Default : Да
Forced : Нет
Основные цвета : BT.709
Характеристики трансфера : BT.709
Коэффициенты матрицы : BT.709
Аудио #1
Идентификатор : 2
Формат : MPEG Audio
Версия формата : Version 1
Профиль формата : Layer 3
Режим : Joint stereo
Расширение режима : MS Stereo
Идентификатор кодека : A_MPEG/L3
Идентификатор кодека/Подсказка : MP3
Продолжительность : 21 м.
Вид битрейта : Постоянный
Битрейт : 192 Кбит/сек
Каналы : 2 канала
Частота : 44,1 КГц
Метод сжатия : С потерями
Размер потока : 29,2 Мбайт (4%)
Библиотека кодирования : LAME3.98.2
Default : Да
Forced : Нет
Аудио #2
Идентификатор : 3
Формат : AC-3
Формат/Информация : Audio Coding 3
Расширение режима : CM (complete main)
Параметр Endianness формата : Big
Идентификатор кодека : A_AC3
Продолжительность : 21 м.
Вид битрейта : Постоянный
Битрейт : 384 Кбит/сек
Каналы : 6 каналов
Расположение каналов : Front: L C R, Side: L R, LFE
Частота : 48,0 КГц
Битовая глубина : 16 бит
Метод сжатия : С потерями
Размер потока : 58,3 Мбайт (8%)
Заголовок : Dolby Digital 5.1 @ 384 kbps
Язык : English
Default : Нет
Forced : Нет
Общее
Уникальный идентификатор : 247396203489630806254784669291725398381 (0xBA1EC69087764B0C84CB51955E6B216D)
Полное имя : N:\фильмы\Dont Trust the Bitch in Apartment 23 720p\Dont.Trust.the.Bitch.in.Apartment.23.S01E03.720p.[FanFilm].mkv
Формат : Matroska
Версия формата : Version 2
Размер файла : 725 Мбайт
Продолжительность : 21 м.
Общий поток : 4701 Кбит/сек
Дата кодирования : UTC 2012-05-13 10:46:43
Программа кодирования : mkvmerge v5.5.0 ('Healer') built on Apr 6 2012 21:43:24
Библиотека кодирования : libebml v1.2.3 + libmatroska v1.3.0
Видео
Идентификатор : 1
Формат : AVC
Формат/Информация : Advanced Video Codec
Профиль формата : [email protected]
Параметр CABAC формата : Нет
Параметр ReFrames формата : 2 кадра
Идентификатор кодека : V_MPEG4/ISO/AVC
Продолжительность : 21 м.
Битрейт : 4031 Кбит/сек
Ширина : 1280 пикселей
Высота : 720 пикселей
Соотношение сторон : 16:9
Режим частоты кадров : Постоянный
Частота кадров : 23,976 кадра/сек
Цветовое пространство : YUV
Субдискретизация насыщенности : 4:2:0
Битовая глубина : 8 бит
Тип развёртки : Прогрессивная
Бит/(Пиксели*Кадры) : 0.182
Размер потока : 622 Мбайт (86%)
Заголовок : Don't Trust The B---- In Apartment 23 - Season 1, Episode 3: Parent Trap…
Язык : English
Default : Да
Forced : Нет
Основные цвета : BT.709
Характеристики трансфера : BT.709
Коэффициенты матрицы : BT.709
Аудио #1
Идентификатор : 2
Формат : MPEG Audio
Версия формата : Version 1
Профиль формата : Layer 3
Режим : Joint stereo
Расширение режима : MS Stereo
Идентификатор кодека : A_MPEG/L3
Идентификатор кодека/Подсказка : MP3
Продолжительность : 21 м.
Вид битрейта : Постоянный
Битрейт : 192 Кбит/сек
Каналы : 2 канала
Частота : 44,1 КГц
Метод сжатия : С потерями
Размер потока : 29,6 Мбайт (4%)
Заголовок : Озвучка FanFilm
Библиотека кодирования : LAME3.98.2
Язык : Russian
Default : Да
Forced : Нет
Аудио #2
Идентификатор : 3
Формат : AC-3
Формат/Информация : Audio Coding 3
Расширение режима : CM (complete main)
Параметр Endianness формата : Big
Идентификатор кодека : A_AC3
Продолжительность : 21 м.
Вид битрейта : Постоянный
Битрейт : 384 Кбит/сек
Каналы : 6 каналов
Расположение каналов : Front: L C R, Side: L R, LFE
Частота : 48,0 КГц
Битовая глубина : 16 бит
Метод сжатия : С потерями
Размер потока : 59,2 Мбайт (8%)
Заголовок : Dolby Digital 5.1 @ 384 kbps
Язык : English
Default : Нет
Forced : Нет
Общее
Уникальный идентификатор : 224981741938559898024923866451138085751 (0xA941E849A9612C27A16FF8FCF59C8377)
Полное имя : N:\фильмы\Dont Trust the Bitch in Apartment 23 720p\Dont.Trust.the.Bitch.in.Apartment.23.S01E04.720p.[FanFilm].mkv
Формат : Matroska
Версия формата : Version 2
Размер файла : 718 Мбайт
Продолжительность : 21 м.
Общий поток : 4638 Кбит/сек
Дата кодирования : UTC 2012-05-13 09:04:16
Программа кодирования : mkvmerge v5.5.0 ('Healer') built on Apr 6 2012 21:43:24
Библиотека кодирования : libebml v1.2.3 + libmatroska v1.3.0
Видео
Идентификатор : 1
Формат : AVC
Формат/Информация : Advanced Video Codec
Профиль формата : [email protected]
Параметр CABAC формата : Нет
Параметр ReFrames формата : 2 кадра
Идентификатор кодека : V_MPEG4/ISO/AVC
Продолжительность : 21 м.
Битрейт : 3969 Кбит/сек
Ширина : 1280 пикселей
Высота : 720 пикселей
Соотношение сторон : 16:9
Режим частоты кадров : Постоянный
Частота кадров : 23,976 кадра/сек
Цветовое пространство : YUV
Субдискретизация насыщенности : 4:2:0
Битовая глубина : 8 бит
Тип развёртки : Прогрессивная
Бит/(Пиксели*Кадры) : 0.180
Размер потока : 615 Мбайт (86%)
Заголовок : Don't Trust the B---- in Apartment 23 - Season 1, Episode 4: The Wedding…
Язык : English
Default : Да
Forced : Нет
Основные цвета : BT.709
Характеристики трансфера : BT.709
Коэффициенты матрицы : BT.709
Аудио #1
Идентификатор : 2
Формат : MPEG Audio
Версия формата : Version 1
Профиль формата : Layer 3
Идентификатор кодека : A_MPEG/L3
Идентификатор кодека/Подсказка : MP3
Продолжительность : 21 м.
Вид битрейта : Постоянный
Битрейт : 192 Кбит/сек
Каналы : 2 канала
Частота : 44,1 КГц
Метод сжатия : С потерями
Размер потока : 29,7 Мбайт (4%)
Заголовок : Озвучка FanFilm
Язык : Russian
Default : Да
Forced : Нет
Аудио #2
Идентификатор : 3
Формат : AC-3
Формат/Информация : Audio Coding 3
Расширение режима : CM (complete main)
Параметр Endianness формата : Big
Идентификатор кодека : A_AC3
Продолжительность : 21 м.
Вид битрейта : Постоянный
Битрейт : 384 Кбит/сек
Каналы : 6 каналов
Расположение каналов : Front: L C R, Side: L R, LFE
Частота : 48,0 КГц
Битовая глубина : 16 бит
Метод сжатия : С потерями
Размер потока : 59,5 Мбайт (8%)
Заголовок : Dolby Digital 5.1 @ 384 kbps
Язык : English
Default : Нет
Forced : Нет
Общее
Уникальный идентификатор : 178630871053675171392277465370745222501 (0x86630DEA3CB3EDABA85996742DBDB565)
Полное имя : N:\фильмы\Dont Trust the Bitch in Apartment 23 720p\Dont.Trust.the.Bitch.in.Apartment.23.S01E05.720p.[FanFilm].mkv
Формат : Matroska
Версия формата : Version 2
Размер файла : 692 Мбайт
Продолжительность : 21 м.
Общий поток : 4573 Кбит/сек
Дата кодирования : UTC 2012-05-24 16:52:46
Программа кодирования : mkvmerge v5.5.0 ('Healer') built on Apr 6 2012 21:43:24
Библиотека кодирования : libebml v1.2.3 + libmatroska v1.3.0
Видео
Идентификатор : 1
Формат : AVC
Формат/Информация : Advanced Video Codec
Профиль формата : [email protected]
Параметр CABAC формата : Нет
Параметр ReFrames формата : 2 кадра
Идентификатор кодека : V_MPEG4/ISO/AVC
Продолжительность : 21 м.
Битрейт : 3906 Кбит/сек
Ширина : 1280 пикселей
Высота : 720 пикселей
Соотношение сторон : 16:9
Режим частоты кадров : Постоянный
Частота кадров : 23,976 кадра/сек
Цветовое пространство : YUV
Субдискретизация насыщенности : 4:2:0
Битовая глубина : 8 бит
Тип развёртки : Прогрессивная
Бит/(Пиксели*Кадры) : 0.177
Размер потока : 591 Мбайт (85%)
Заголовок : Don't Trust the B---- in Apartment 23 - Season 1, Episode 5: Making Rent…
Язык : English
Default : Да
Forced : Нет
Основные цвета : BT.709
Характеристики трансфера : BT.709
Коэффициенты матрицы : BT.709
Аудио #1
Идентификатор : 2
Формат : MPEG Audio
Версия формата : Version 1
Профиль формата : Layer 3
Идентификатор кодека : A_MPEG/L3
Идентификатор кодека/Подсказка : MP3
Продолжительность : 21 м.
Вид битрейта : Постоянный
Битрейт : 192 Кбит/сек
Каналы : 2 канала
Частота : 44,1 КГц
Метод сжатия : С потерями
Размер потока : 29,0 Мбайт (4%)
Заголовок : Озвучка FanFilm
Язык : Russian
Default : Да
Forced : Нет
Аудио #2
Идентификатор : 3
Формат : AC-3
Формат/Информация : Audio Coding 3
Расширение режима : CM (complete main)
Параметр Endianness формата : Big
Идентификатор кодека : A_AC3
Продолжительность : 21 м.
Вид битрейта : Постоянный
Битрейт : 384 Кбит/сек
Каналы : 6 каналов
Расположение каналов : Front: L C R, Side: L R, LFE
Частота : 48,0 КГц
Битовая глубина : 16 бит
Метод сжатия : С потерями
Размер потока : 58,1 Мбайт (8%)
Заголовок : Dolby Digital 5.1 @ 384 kbps
Язык : English
Default : Нет
Forced : Нет
Общее
Уникальный идентификатор : 248661459506271466421296567068257996180 (0xBB127480A29784A9A1F98911A94CCD94)
Полное имя : N:\фильмы\Dont Trust the Bitch in Apartment 23 720p\Dont.Trust.the.Bitch.in.Apartment.23.S01E06.720p.[FanFilm].mkv
Формат : Matroska
Версия формата : Version 2
Размер файла : 751 Мбайт
Продолжительность : 21 м.
Общий поток : 4872 Кбит/сек
Дата кодирования : UTC 2012-06-03 16:33:43
Программа кодирования : mkvmerge v5.5.0 ('Healer') built on Apr 6 2012 21:43:24
Библиотека кодирования : libebml v1.2.3 + libmatroska v1.3.0
Видео
Идентификатор : 1
Формат : AVC
Формат/Информация : Advanced Video Codec
Профиль формата : [email protected]
Параметр CABAC формата : Нет
Параметр ReFrames формата : 2 кадра
Идентификатор кодека : V_MPEG4/ISO/AVC
Продолжительность : 21 м.
Битрейт : 4199 Кбит/сек
Ширина : 1280 пикселей
Высота : 720 пикселей
Соотношение сторон : 16:9
Режим частоты кадров : Постоянный
Частота кадров : 23,976 кадра/сек
Цветовое пространство : YUV
Субдискретизация насыщенности : 4:2:0
Битовая глубина : 8 бит
Тип развёртки : Прогрессивная
Бит/(Пиксели*Кадры) : 0.190
Размер потока : 647 Мбайт (86%)
Заголовок : Don't Trust the B---- In Apartment 23 - Season 1, Episode 6: It's Just Sex…
Язык : English
Default : Да
Forced : Нет
Основные цвета : BT.709
Характеристики трансфера : BT.709
Коэффициенты матрицы : BT.709
Аудио #1
Идентификатор : 2
Формат : MPEG Audio
Версия формата : Version 1
Профиль формата : Layer 3
Идентификатор кодека : A_MPEG/L3
Идентификатор кодека/Подсказка : MP3
Продолжительность : 21 м.
Вид битрейта : Постоянный
Битрейт : 192 Кбит/сек
Каналы : 2 канала
Частота : 44,1 КГц
Метод сжатия : С потерями
Размер потока : 29,6 Мбайт (4%)
Заголовок : Озвучка FanFilm
Язык : Russian
Default : Да
Forced : Нет
Аудио #2
Идентификатор : 3
Формат : AC-3
Формат/Информация : Audio Coding 3
Расширение режима : CM (complete main)
Параметр Endianness формата : Big
Идентификатор кодека : A_AC3
Продолжительность : 21 м.
Вид битрейта : Постоянный
Битрейт : 384 Кбит/сек
Каналы : 6 каналов
Расположение каналов : Front: L C R, Side: L R, LFE
Частота : 48,0 КГц
Битовая глубина : 16 бит
Метод сжатия : С потерями
Размер потока : 59,2 Мбайт (8%)
Заголовок : Dolby Digital 5.1 @ 384 kbps
Язык : English
Default : Нет
Forced : Нет
Общее
Уникальный идентификатор : 219552911762677140213054103732978452937 (0xA52C5A4B78E41CA5B03CED4E13E809C9)
Полное имя : N:\фильмы\Dont Trust the Bitch in Apartment 23 720p\Dont.Trust.the.Bitch.in.Apartment.23.S01E07.720p.[FanFilm].mkv
Формат : Matroska
Версия формата : Version 2
Размер файла : 710 Мбайт
Продолжительность : 21 м.
Общий поток : 4601 Кбит/сек
Дата кодирования : UTC 2012-06-13 18:03:09
Программа кодирования : mkvmerge v5.6.0 ('Kenya Kane') built on May 27 2012 16:44:04
Библиотека кодирования : libebml v1.2.3 + libmatroska v1.3.0
Видео
Идентификатор : 1
Формат : AVC
Формат/Информация : Advanced Video Codec
Профиль формата : [email protected]
Параметр CABAC формата : Нет
Параметр ReFrames формата : 2 кадра
Идентификатор кодека : V_MPEG4/ISO/AVC
Продолжительность : 21 м.
Битрейт : 3933 Кбит/сек
Ширина : 1280 пикселей
Высота : 720 пикселей
Соотношение сторон : 16:9
Режим частоты кадров : Постоянный
Частота кадров : 23,976 кадра/сек
Цветовое пространство : YUV
Субдискретизация насыщенности : 4:2:0
Битовая глубина : 8 бит
Тип развёртки : Прогрессивная
Бит/(Пиксели*Кадры) : 0.178
Размер потока : 607 Мбайт (85%)
Заголовок : Don't Trust The B---- In Apartment 23 - Season 1, Episode 7: Shitagi Nashi...
Язык : English
Default : Да
Forced : Нет
Основные цвета : BT.709
Характеристики трансфера : BT.709
Коэффициенты матрицы : BT.709
Аудио #1
Идентификатор : 2
Формат : MPEG Audio
Версия формата : Version 1
Профиль формата : Layer 3
Идентификатор кодека : A_MPEG/L3
Идентификатор кодека/Подсказка : MP3
Продолжительность : 21 м.
Вид битрейта : Постоянный
Битрейт : 192 Кбит/сек
Каналы : 2 канала
Частота : 44,1 КГц
Метод сжатия : С потерями
Размер потока : 29,6 Мбайт (4%)
Заголовок : Озвучка FanFilm
Язык : Russian
Default : Да
Forced : Нет
Аудио #2
Идентификатор : 3
Формат : AC-3
Формат/Информация : Audio Coding 3
Расширение режима : CM (complete main)
Параметр Endianness формата : Big
Идентификатор кодека : A_AC3
Продолжительность : 21 м.
Вид битрейта : Постоянный
Битрейт : 384 Кбит/сек
Каналы : 6 каналов
Расположение каналов : Front: L C R, Side: L R, LFE
Частота : 48,0 КГц
Битовая глубина : 16 бит
Метод сжатия : С потерями
Размер потока : 59,2 Мбайт (8%)
Заголовок : Dolby Digital 5.1 @ 384 kbps
Язык : English
Default : Нет
Forced : Нет
Download / Скачать

Хотите скачать бесплатно? Зарегистрируйтесь на сайте (ссылка на регистрацию). Pirat.ca - самый быстрый торрент трекер в рунете!

Как скачивать  ·   Что такое торрент  ·   Рейтинг и ограничения



Последний раз редактировалось: kloctuk (2013-06-25 11:35), всего редактировалось 3 раз(а)

kloctuk ®

3304

Пост 25-Июн-2013 10:51 (спустя 10 часов)

[Q] 

Второй сезон будет скоро...

_________________
-выстрели еще разок. -зачем? - его душа еще танцует...
[Профиль]  [ЛС] 

Пост 25-Июн-2013 13:30 (спустя 2 часа 39 минут)

Топик был перенесен из форума Зарубежные сериалы (Трюм) в форум Зарубежные сериалы

kugesan
 

kloctuk ®

3304

Пост 28-Авг-2013 14:44 (спустя 2 месяца 3 дня)

[Q] 

ABC решил отменить Don’t Trust the B--- in Apartment 23 после полутора сезонов в эфире. Сеть вырезала низкорейтинговою комедию из графика и неясно, когда зрители смогут увидеть восемь не показанных выпусков.
upd: Кристен твитнула фотку с озвучки последнего эпизода этого сезона и подписала «Только что закончила озвучку последней серии "Не верь с... из кв. 23". Это было как стреляться! Такой смешной сериал. Так грустно, что его закрыли. Но как я понимаю канал АВС пообещал показать последние 8 серий этим летом»

_________________
-выстрели еще разок. -зачем? - его душа еще танцует...
[Профиль]  [ЛС] 
Показать сообщения:    
Ответить на тему

Текущее время: Сегодня 14:11

Часовой пояс: GMT + 4



Вы не можете начинать темы
Вы не можете отвечать на сообщения
Вы не можете редактировать свои сообщения
Вы не можете удалять свои сообщения
Вы не можете голосовать в опросах
Вы не можете прикреплять файлы к сообщениям
Вы не можете скачивать файлы

▼ Вниз