ML
     
  Уважаемый Гость!
Вы можете поддержать проект и зарегистрироваться у наших партнеров - онлайн-стратегия MyLands. При регистрации в игре Вы получите код, который сможете активировать после регистрации на pirat.ca и получить 1000 дублонов.

Ваш код:
0ea1bf889af42fca5f67d0a391efb3400850ad7c
 
     

Под куполом / Under the Dome / Сезон: 1 / Серии: 13 (Джек Бендер / Jack Bender) [2013 г., Фантастика, Ужасы, WEB-DL] DVO [+ Original (Eng)] (Кубик в Кубе)

Ответить на тему
 
Автор
Сообщение

Пост 06-Июл-2013 00:36

[Q] 

kloctuk

-Под куполом / Under the Dome-- Производство: США
Жанр: Фантастика, Ужасы
Год выпуска: 2013 г.
Продолжительность: 13x00.44
Озвучка: Кубик в Кубе
Перевод: Профессиональный (двухголосый, закадровый)
Оригинальный аудиопоток: английский
Режиссер: Джек Бендер / Jack Bender-В ролях: Майк Фогель (Dale «Barbie» Barbara), Колин Форд (Joe McClatchey), Аиша Хиндс (Carolyn Hill), Александр Кох (Junior Rennie), Рашель Лефевр (Julia Shumway), Натали Мартинез (Linda), Дин Норрис (James «Big Jim» Rennie), Джолин Парди (Dodee), Бриттани Робертсон (Angie McAlister), Николас Стронг (Phil), Маккензи Линтц (Norrie)-Описание: Обычным, пригожим осенним днем, город Честерс Миллз, штат Мэн, был внезапно отрезан от остального мира невидимым силовым барьером. Самолеты врезаются в купол и падают, пылая, с небес; садовнику отрезает силовым полем руку; люди, выехавшие в соседний город по делам, не могут вернуться к своим близким; автомобили взрываются от столкновения с куполом. Никто не понимает, что это за барьер, откуда он взялся и исчезнет ли он.
Дейл Барбара, ветеран конфликта в Ираке, а ныне повар, обнаруживает себя в команде с несколькими отважными жителями — Джулией Шамвей, владелицей городской газеты, помощником врача, женщиной и тремя храбрыми детьми. Против них выступает Большой Джим Ренни — местный политический деятель, который для удержания власти не остановится ни перед чем, даже перед убийством, а также его сын со своим личным «скелетом в шкафу». Но главный их противник — сам Купол…-
Качество видео: WEB-DL
Контейнер: AVI
Видео кодек: XviD
Аудио кодек: MP3
Видео: 720x400 (1.80:1), 23.976 fps, XviD build 50 ~1505 kbps avg, 0.22 bit/pixel
Аудио #1: RUS 44.100 kHz, MPEG Layer 3, 2 ch, ~128.00 kbps avg
Аудио #2: ENG 48 kHz, MPEG Layer 3, 2 ch, ~128.00 kbps avg
Cубтитры: отсутствуют
Общее
Полное имя : N:\фильмы\Under.the.Dome.s01.rus.eng.k3\Under.the.Dome.s01e01.rus.eng.k3.avi
Формат : AVI
Формат/Информация : Audio Video Interleave
Размер файла : 544 Мбайт
Продолжительность : 42 м.
Общий поток : 1776 Кбит/сек
Программа кодирования : VirtualDubMod 1.5.10.2 (build 2540/release)
Библиотека кодирования : VirtualDubMod build 2540/release
Видео
Идентификатор : 0
Формат : MPEG-4 Visual
Профиль формата : Advanced [email protected]
Параметр BVOP формата : 2
Параметр QPel формата : Нет
Параметр GMC формата : Без точки перехода
Параметр матрицы формата : Default (H.263)
Идентификатор кодека : XVID
Идентификатор кодека/Подсказка : XviD
Продолжительность : 42 м.
Битрейт : 1506 Кбит/сек
Ширина : 720 пикселей
Высота : 400 пикселей
Соотношение сторон : 16:9
Частота кадров : 23,976 кадра/сек
Цветовое пространство : YUV
Субдискретизация насыщенности : 4:2:0
Битовая глубина : 8 бит
Тип развёртки : Прогрессивная
Метод сжатия : С потерями
Бит/(Пиксели*Кадры) : 0.218
Размер потока : 461 Мбайт (85%)
Библиотека кодирования : XviD 1.2.1 (UTC 2008-12-04)
Аудио #1
Идентификатор : 1
Формат : MPEG Audio
Версия формата : Version 1
Профиль формата : Layer 3
Режим : Joint stereo
Расширение режима : MS Stereo
Идентификатор кодека : 55
Идентификатор кодека/Подсказка : MP3
Продолжительность : 42 м.
Вид битрейта : Постоянный
Битрейт : 128 Кбит/сек
Каналы : 2 канала
Частота : 44,1 КГц
Метод сжатия : С потерями
Размер потока : 39,2 Мбайт (7%)
Выравнивание : Разделение по промежуткам
Продолжительность промежутка : 42 мс. (1,00 видеокадр)
Время предзагрузки промежутка : 500 мс.
Аудио #2
Идентификатор : 2
Формат : MPEG Audio
Версия формата : Version 1
Профиль формата : Layer 3
Идентификатор кодека : 55
Идентификатор кодека/Подсказка : MP3
Продолжительность : 42 м.
Вид битрейта : Постоянный
Битрейт : 128 Кбит/сек
Каналы : 2 канала
Частота : 48,0 КГц
Метод сжатия : С потерями
Размер потока : 39,2 Мбайт (7%)
Выравнивание : Соединение по промежуткам
Продолжительность промежутка : 42 мс. (1,00 видеокадр)
Время предзагрузки промежутка : 504 мс.
Библиотека кодирования : LAME3.99r
Настройки программы : -m s -V 4 -q 2 -lowpass 17 -b 128
Внимание! Раздача ведётся путём добавления новых серий; при каждом добавлении создётся новый торрент. Чтобы начать докачку новой серии, пользователям необходимо сделать следующее:
(1) остановить скачивание,
(2) удалить старый торрент у себя из клиента (старые серии удалять не надо),
(3) скачать новый торрент и запустить его у себя в клиенте вместо старого, при этом указать клиенту путь в старую папку куда и должно происходить скачивание новых серий.
Ваш клиент при этом должен произвести хеширование (проверку) старой папки (если не производит сам - помогите ему сделать это), и будет докачивать только те серии которых у вас ещё нет. Старые серии при этом не удаляются, а продолжают раздаваться!
Eсли вы уже удалили старые серии, то предотвратить повторную закачку старых серий можно, отжав галочку в соответсвующих местах при запуске нового торрента. По возможности, желательно не удалять старые серии как можно дольше чтобы релизёр не столько продолжал раздавать старые серии, а смог сконцентрироваться на новых.
Добавлена заключительная серия №13, 19.09.2013
Download / Скачать

Хотите скачать бесплатно? Зарегистрируйтесь на сайте (ссылка на регистрацию). Pirat.ca - самый быстрый торрент трекер в рунете!

Как скачивать  ·   Что такое торрент  ·   Рейтинг и ограничения



Последний раз редактировалось: kloctuk (2013-09-19 19:38), всего редактировалось 9 раз(а)

bazon133

Морской Волк

Пост 06-Июл-2013 11:56 (спустя 11 часов)

[Q] 

[Профиль]  [ЛС] 

Пост 06-Июл-2013 15:36 (спустя 3 часа)

Топик был перенесен из форума Зарубежные сериалы (Трюм) в форум Сериалы в эфире

kugesan
 

Engener

Морской Волк

Пост 06-Июл-2013 15:45 (спустя 3 часа)

[Q] 

Читал книгу Кинга, обалденная вещь, надеяться не мог, что так быстро экранизируют. Ба-арби!

_________________
Остановите Землю, я сойду!
[Профиль]  [ЛС] 

serega_65

Штурман

Пост 10-Июл-2013 22:45 (спустя 4 дня)

[Q] 

Премного благодарен! aa
[Профиль]  [ЛС] 

kloctuk ®

3303

Пост 11-Июл-2013 14:54 (спустя 16 часов)

[Q] 

Новая серия должна была быть вчера вроде бы как, но пока что тихо ((

_________________
-выстрели еще разок. -зачем? - его душа еще танцует...
[Профиль]  [ЛС] 

Marinochka

Юнга

Пост 20-Июл-2013 23:11 (спустя 9 дней)

[Q] 

[Профиль]  [ЛС] 

Evgen78K

4

Пост 26-Июл-2013 23:03 (спустя 5 дней)

[Q] 

Спасибо!Только где сиды?

_________________
Я за свободный интернет
[Профиль]  [ЛС] 

kloctuk ®

3303

Пост 30-Июл-2013 00:01 (спустя 3 дня)

[Q] 

Раздача приостановлена до 18 августа в связи с отпуском...
Мои извинения...

_________________
-выстрели еще разок. -зачем? - его душа еще танцует...
[Профиль]  [ЛС] 

vovan200976

Флибустьер

Пост 18-Авг-2013 09:09 (спустя 19 дней)

[Q] 

Малеха подожду и весь сезон заберу !!! Лови бочку
[Профиль]  [ЛС] 

kloctuk ®

3303

Пост 19-Авг-2013 14:55 (спустя 1 день 5 часов)

[Q] 

409756Малеха подожду и весь сезон заберу !!!
Мне в такое терпение, каждую серию жду...

_________________
-выстрели еще разок. -зачем? - его душа еще танцует...
[Профиль]  [ЛС] 
Показать сообщения:    
Ответить на тему

Текущее время: Сегодня 00:35

Часовой пояс: GMT + 4



Вы не можете начинать темы
Вы не можете отвечать на сообщения
Вы не можете редактировать свои сообщения
Вы не можете удалять свои сообщения
Вы не можете голосовать в опросах
Вы не можете прикреплять файлы к сообщениям
Вы не можете скачивать файлы

▼ Вниз