ML
     
  Уважаемый Гость!
Вы можете поддержать проект и зарегистрироваться у наших партнеров - онлайн-стратегия MyLands. При регистрации в игре Вы получите код, который сможете активировать после регистрации на pirat.ca и получить 1000 дублонов.

Ваш код:
fe4e93b754a7c2b306fcfc8bc32532ea1cf59d3b
 
     

Настоящая Кровь / True Blood / Сезон: 1 / Серии: 1-12 из 12 (Майкл Леманн / Michael Lehmann ...) [2008 г., фэнтези, триллер, драма, мелодрама, детектив, BDRip] MVO [Sub Rus, + Original (Eng)] (Канал Fox Life)

Ответить на тему
 
Автор
Сообщение

Пост 06-Июл-2013 09:57

[Q] 

UnSlayeR

Флибустьер

-Настоящая Кровь / True Blood-- Производство: США, Канал HBO
Жанр: фэнтези, триллер, драма, мелодрама, детектив
Год выпуска: 2008 г.
Продолжительность: 00:58:00
Перевод: Профессиональный (многоголосый, закадровый) [Канал Fox Life]
Оригинальный аудиопоток: английский
Режиссер: Майкл Леманн / Michael Lehmann, Скотт Уинант / Scott Winant, Даниэль Минахан / Daniel Minahanс-В ролях: Анна Пакуин, Стивен Мойер, Сэм Трэммелл, Райан Квонтен, Рутина Уэсли, Нелсан Эллис и др.-Описание: События разворачиваются в небольшом городке в пригороде Нового Орлеана. С тех пор, как японцы изобрели синтетическую кровь «True Blood», у вампиров отпала необходимость убивать простых смертных. Два года назад вампиры покинули свои гробы и официально заявили о своих правах. Но как водится, не все люди оказались готовы к этому, и не все вампиры были рады отказаться от привычного лакомства. Сьюки Стэкхауз - обычная официантка из пригородного кафе, наделенная способностью читать мысли окружающих, знакомится с «хорошим» вампиром Биллом Комтоном. И сразу приобретает много врагов из «плохих парней».-
Качество видео: BDRip
Контейнер: AVI
Видео кодек: XviD
Аудио кодек: MP3
Видео: 624x352 (16:9), 1153 kbps, 23,976 fps, 0,219 bpp
Аудио #1: MP3 / 2.0 / 48 kHz / 128 kbps / |RUS|
Аудио #2: MP3 / 2.0 / 48 kHz / 128 kbps / |ENG|
Cубтитры: русские, английские
Формат субтитров: softsub (SRT)
General
Complete name : D:\S01\S01E01.Strange Love.avi
Format : AVI
Format/Info : Audio Video Interleave
File size : 596 MiB
Duration : 58mn 32s
Overall bit rate : 1 424 Kbps
Writing application : VirtualDubMod 1.5.10.2 (build 2540/release)
Writing library : VirtualDubMod build 2540/release
Video
ID : 0
Format : MPEG-4 Visual
Format profile : Advanced [email protected]
Format settings, BVOP : 1
Format settings, QPel : No
Format settings, GMC : No warppoints
Format settings, Matrix : Default (H.263)
Codec ID : XVID
Codec ID/Hint : XviD
Duration : 58mn 32s
Bit rate : 1 154 Kbps
Width : 624 pixels
Height : 352 pixels
Display aspect ratio : 16:9
Frame rate : 23.976 fps
Color space : YUV
Chroma subsampling : 4:2:0
Bit depth : 8 bits
Scan type : Progressive
Compression mode : Lossy
Bits/(Pixel*Frame) : 0.219
Stream size : 483 MiB (81%)
Writing library : XviD 64
Audio #1
ID : 1
Format : MPEG Audio
Format version : Version 1
Format profile : Layer 3
Codec ID : 55
Codec ID/Hint : MP3
Duration : 58mn 32s
Bit rate mode : Constant
Bit rate : 128 Kbps
Channel(s) : 2 channels
Sampling rate : 48.0 KHz
Compression mode : Lossy
Stream size : 53.6 MiB (9%)
Alignment : Aligned on interleaves
Interleave, duration : 42 ms (1.00 video frame)
Interleave, preload duration : 504 ms
Writing library : LAME3.99r
Encoding settings : -m s -V 4 -q 0 -lowpass 17 -b 128
Audio #2
ID : 2
Format : MPEG Audio
Format version : Version 1
Format profile : Layer 3
Mode : Joint stereo
Codec ID : 55
Codec ID/Hint : MP3
Duration : 58mn 32s
Bit rate mode : Constant
Bit rate : 128 Kbps
Channel(s) : 2 channels
Sampling rate : 48.0 KHz
Compression mode : Lossy
Stream size : 53.6 MiB (9%)
Alignment : Aligned on interleaves
Interleave, duration : 42 ms (1.00 video frame)
Interleave, preload duration : 504 ms
Writing library : LAME3.99r
Encoding settings : -m j -V 4 -q 0 -lowpass 17 -b 128
Download / Скачать

Хотите скачать бесплатно? Зарегистрируйтесь на сайте (ссылка на регистрацию). Pirat.ca - самый быстрый торрент трекер в рунете!

Как скачивать  ·   Что такое торрент  ·   Рейтинг и ограничения

Пост 06-Июл-2013 15:45 (спустя 5 часов)

Топик был перенесен из форума Зарубежные сериалы (Трюм) в форум Зарубежные сериалы

kugesan
 

belfast

Лоцман

Пост 02-Авг-2013 22:32 (спустя 27 дней)

[Q] 

Господа, если есть возможность, плиззз, выкладывайте остальные сезоны !
[Профиль]  [ЛС] 

lelik1973

Шкипер

2

Пост 30-Авг-2013 22:32 (спустя 27 дней)

[Q] 

дайте продолжения плиииз!!! Вы лучшие!
[Профиль]  [ЛС] 

shelby290

Флибустьер

Пост 24-Авг-2015 22:27 (спустя 1 год 11 месяцев)

[Q] 

Спасибо!
Автору респект!!!
[Профиль]  [ЛС] 
Показать сообщения:    
Ответить на тему

Текущее время: Сегодня 14:31

Часовой пояс: GMT + 4



Вы не можете начинать темы
Вы не можете отвечать на сообщения
Вы не можете редактировать свои сообщения
Вы не можете удалять свои сообщения
Вы не можете голосовать в опросах
Вы не можете прикреплять файлы к сообщениям
Вы не можете скачивать файлы

▼ Вниз