ML
     
  Уважаемый Гость!
Вы можете поддержать проект и зарегистрироваться у наших партнеров - онлайн-стратегия MyLands. При регистрации в игре Вы получите код, который сможете активировать после регистрации на pirat.ca и получить 1000 дублонов.

Ваш код:
fe4e93b754a7c2b306fcfc8bc32532ea1cf59d3b
 
     

Ходячие мертвецы / The Walking Dead (сезон 2, серии 1-13 из 13) [Novafilm] (Гвинет Хордер-Пэйтон Эрнест Р. Дикерсон) [2011 г., триллер ужасы драма сериалы, WEB-DLRip] (MVO)

Страницы :  1, 2, 3, 4  След.

Ответить на тему
 
Автор
Сообщение

Пост 29-Окт-2011 09:50

[Q] 

ara1205

-Ходячие мертвецы 2/ The Walking Dead-- Год выпуска: 2011
Страна: США
Жанр: триллер ужасы драма сериалы
Продолжительность: 1 серия - 01:02:45, 2- 13 серии - 00:42:00
Перевод: Профессиональный (многоголосый, закадровый) Novafilm
Оригинальная аудиодорожка: Английская
Режиссер: Гвинет Хордер-Пэйтон Эрнест Р. Дикерсон
СЭМПЛ
IMDb
КИНОПОИСК
В ролях: Эндрю Линкольн, Джон Бернтал, Сара Уэйн Коллис, Лори Холден, Джеффри ДеМун, Steven Yeun, Чендлер Риггз, Айрон Э. Синглтон, Норман Ридус, Мелисса Сюзанн МакБрайд, Мэдисон Линтц и др.
Описание: Сериал рассказывает историю жизни семьи шерифа после того, как «зомби» — эпидемия апокалипсических масштабов захлестнула земной шар. Шериф Рик Грайм путешествует со своей семьей и небольшой группой выживших в поисках безопасного места для жизни. Но постоянный страх смерти каждый день приносит тяжелые потери, заставляя героев почувствовать глубины человеческой жестокости. Рик пытается спасти свою семью, и открывает для себя, что всепоглощающий страх тех, кто выжил, может быть опаснее бессмысленных мертвецов, бродящих по земле.
Качество: WEB-DLRip
Формат: AVI
Видео кодек: XviD
Аудио кодек: MP3
Видео: 624×352 (1.77:1), 23.976 fps, XviD build 64 ~1068 kbps avg, 0.20 bit/pixel
Аудио 1: Русский, 48 kHz, MPEG Layer 3, 2 ch, ~128.00 kbps avg
Аудио 2: Англиский, 48 kHz, MPEG Layer 3, 2 ch, ~128.00 kbps avg
General
Complete name : F:\Ходячие мертвецы\the.walking.dead.s02e01.web-dlrip.rus.eng.novafilm.tv.avi
Format : AVI
Format/Info : Audio Video Interleave
File size : 601 MiB
Duration : 1h 2mn
Overall bit rate : 1 338 Kbps
Writing application : VirtualDubMod 1.5.10.2 (build 2540/release)
Writing library : VirtualDubMod build 2540/release
Video
Format : MPEG-4 Visual
Format profile : Streaming [email protected]
Format settings, BVOP : Yes
Format settings, QPel : No
Format settings, GMC : No warppoints
Format settings, Matrix : Default
Codec ID : XVID
Codec ID/Hint : XviD
Duration : 1h 2mn
Bit rate : 1 068 Kbps
Width : 624 pixels
Height : 352 pixels
Display aspect ratio : 16/9
Frame rate : 23.976 fps
Resolution : 24 bits
Colorimetry : 4:2:0
Scan type : Progressive
Bits/(Pixel*Frame) : 0.203
Stream size : 480 MiB (80%)
Writing library : XviD 64
Audio
Format : MPEG Audio
Format version : Version 1
Format profile : Layer 3
Codec ID : 55
Codec ID/Hint : MP3
Duration : 1h 2mn
Bit rate mode : Constant
Bit rate : 128 Kbps
Channel(s) : 2 channels
Sampling rate : 48.0 KHz
Resolution : 16 bits
Stream size : 57.5 MiB (10%)
Alignment : Aligned on interleaves
Interleave, duration : 42 ms (1.00 video frame)
Interleave, preload duration : 504 ms
Audio
Format : MPEG Audio
Format version : Version 1
Format profile : Layer 3
Codec ID : 55
Codec ID/Hint : MP3
Duration : 1h 2mn
Bit rate mode : Constant
Bit rate : 128 Kbps
Channel(s) : 2 channels
Sampling rate : 48.0 KHz
Resolution : 16 bits
Stream size : 57.5 MiB (10%)
Alignment : Aligned on interleaves
Interleave, duration : 42 ms (1.00 video frame)
Interleave, preload duration : 504 ms
General
Complete name : G:\Ходячие мертвецы\the.walking.dead.s02e02.web-dlrip.rus.eng.novafilm.tv.avi
Format : AVI
Format/Info : Audio Video Interleave
File size : 400 MiB
Duration : 42mn 29s
Overall bit rate : 1 317 Kbps
Writing application : VirtualDubMod 1.5.10.2 (build 2540/release)
Writing library : VirtualDubMod build 2540/release
Video
Format : MPEG-4 Visual
Format profile : Streaming [email protected]
Format settings, BVOP : Yes
Format settings, QPel : No
Format settings, GMC : No warppoints
Format settings, Matrix : Default
Codec ID : XVID
Codec ID/Hint : XviD
Duration : 42mn 29s
Bit rate : 1 047 Kbps
Width : 624 pixels
Height : 352 pixels
Display aspect ratio : 16/9
Frame rate : 23.976 fps
Resolution : 24 bits
Colorimetry : 4:2:0
Scan type : Progressive
Bits/(Pixel*Frame) : 0.199
Stream size : 318 MiB (80%)
Writing library : XviD 64
Audio
Format : MPEG Audio
Format version : Version 1
Format profile : Layer 3
Codec ID : 55
Codec ID/Hint : MP3
Duration : 42mn 29s
Bit rate mode : Constant
Bit rate : 128 Kbps
Channel(s) : 2 channels
Sampling rate : 48.0 KHz
Resolution : 16 bits
Stream size : 38.9 MiB (10%)
Alignment : Aligned on interleaves
Interleave, duration : 42 ms (1.00 video frame)
Interleave, preload duration : 504 ms
Audio
Format : MPEG Audio
Format version : Version 1
Format profile : Layer 3
Codec ID : 55
Codec ID/Hint : MP3
Duration : 42mn 29s
Bit rate mode : Constant
Bit rate : 128 Kbps
Channel(s) : 2 channels
Sampling rate : 48.0 KHz
Resolution : 16 bits
Stream size : 38.9 MiB (10%)
Alignment : Aligned on interleaves
Interleave, duration : 42 ms (1.00 video frame)
Interleave, preload duration : 504 ms
General
Complete name : G:\Ходячие мертвецы\the.walking.dead.s02e03.web-dlrip.rus.eng.novafilm.tv.avi
Format : AVI
Format/Info : Audio Video Interleave
File size : 400 MiB
Duration : 43mn 16s
Overall bit rate : 1 293 Kbps
Writing application : VirtualDubMod 1.5.10.2 (build 2540/release)
Writing library : VirtualDubMod build 2540/release
Video
Format : MPEG-4 Visual
Format profile : Streaming [email protected]
Format settings, BVOP : Yes
Format settings, QPel : No
Format settings, GMC : No warppoints
Format settings, Matrix : Default
Codec ID : XVID
Codec ID/Hint : XviD
Duration : 43mn 16s
Bit rate : 1 023 Kbps
Width : 624 pixels
Height : 352 pixels
Display aspect ratio : 16/9
Frame rate : 23.976 fps
Resolution : 24 bits
Colorimetry : 4:2:0
Scan type : Progressive
Bits/(Pixel*Frame) : 0.194
Stream size : 317 MiB (79%)
Writing library : XviD 64
Audio
Format : MPEG Audio
Format version : Version 1
Format profile : Layer 3
Codec ID : 55
Codec ID/Hint : MP3
Duration : 43mn 16s
Bit rate mode : Constant
Bit rate : 128 Kbps
Channel(s) : 2 channels
Sampling rate : 48.0 KHz
Resolution : 16 bits
Stream size : 39.6 MiB (10%)
Alignment : Aligned on interleaves
Interleave, duration : 42 ms (1.00 video frame)
Interleave, preload duration : 504 ms
Audio
Format : MPEG Audio
Format version : Version 1
Format profile : Layer 3
Codec ID : 55
Codec ID/Hint : MP3
Duration : 43mn 16s
Bit rate mode : Constant
Bit rate : 128 Kbps
Channel(s) : 2 channels
Sampling rate : 48.0 KHz
Resolution : 16 bits
Stream size : 39.6 MiB (10%)
Alignment : Aligned on interleaves
Interleave, duration : 42 ms (1.00 video frame)
Interleave, preload duration : 504 ms
General
Complete name : G:\Ходячие мертвецы\the.walking.dead.s02e04.web-dlrip.rus.eng.novafilm.tv.avi
Format : AVI
Format/Info : Audio Video Interleave
File size : 401 MiB
Duration : 43mn 24s
Overall bit rate : 1 290 Kbps
Writing application : VirtualDubMod 1.5.10.2 (build 2540/release)
Writing library : VirtualDubMod build 2540/release
Video
Format : MPEG-4 Visual
Format profile : Streaming [email protected]
Format settings, BVOP : Yes
Format settings, QPel : No
Format settings, GMC : No warppoints
Format settings, Matrix : Default
Codec ID : XVID
Codec ID/Hint : XviD
Duration : 43mn 24s
Bit rate : 1 020 Kbps
Width : 624 pixels
Height : 352 pixels
Display aspect ratio : 16/9
Frame rate : 23.976 fps
Resolution : 24 bits
Colorimetry : 4:2:0
Scan type : Progressive
Bits/(Pixel*Frame) : 0.194
Stream size : 317 MiB (79%)
Writing library : XviD 64
Audio
Format : MPEG Audio
Format version : Version 1
Format profile : Layer 3
Codec ID : 55
Codec ID/Hint : MP3
Duration : 43mn 24s
Bit rate mode : Constant
Bit rate : 128 Kbps
Channel(s) : 2 channels
Sampling rate : 48.0 KHz
Resolution : 16 bits
Stream size : 39.7 MiB (10%)
Alignment : Aligned on interleaves
Interleave, duration : 42 ms (1.00 video frame)
Interleave, preload duration : 504 ms
Audio
Format : MPEG Audio
Format version : Version 1
Format profile : Layer 3
Codec ID : 55
Codec ID/Hint : MP3
Duration : 43mn 24s
Bit rate mode : Constant
Bit rate : 128 Kbps
Channel(s) : 2 channels
Sampling rate : 48.0 KHz
Resolution : 16 bits
Stream size : 39.7 MiB (10%)
Alignment : Aligned on interleaves
Interleave, duration : 42 ms (1.00 video frame)
Interleave, preload duration : 504 ms
General
Complete name : D:\Ходячие мертвецы\the.walking.dead.s02e05.web-dlrip.rus.eng.novafilm.tv.avi
Format : AVI
Format/Info : Audio Video Interleave
File size : 400 MiB
Duration : 42mn 38s
Overall bit rate : 1 312 Kbps
Writing application : VirtualDubMod 1.5.10.2 (build 2540/release)
Writing library : VirtualDubMod build 2540/release
Video
Format : MPEG-4 Visual
Format profile : Streaming [email protected]
Format settings, BVOP : Yes
Format settings, QPel : No
Format settings, GMC : No warppoints
Format settings, Matrix : Default
Codec ID : XVID
Codec ID/Hint : XviD
Duration : 42mn 38s
Bit rate : 1 042 Kbps
Width : 624 pixels
Height : 352 pixels
Display aspect ratio : 16/9
Frame rate : 23.976 fps
Resolution : 24 bits
Colorimetry : 4:2:0
Scan type : Progressive
Bits/(Pixel*Frame) : 0.198
Stream size : 318 MiB (79%)
Writing library : XviD 64
Audio
Format : MPEG Audio
Format version : Version 1
Format profile : Layer 3
Codec ID : 55
Codec ID/Hint : MP3
Duration : 42mn 38s
Bit rate mode : Constant
Bit rate : 128 Kbps
Channel(s) : 2 channels
Sampling rate : 48.0 KHz
Resolution : 16 bits
Stream size : 39.0 MiB (10%)
Alignment : Aligned on interleaves
Interleave, duration : 42 ms (1.00 video frame)
Interleave, preload duration : 504 ms
Audio
Format : MPEG Audio
Format version : Version 1
Format profile : Layer 3
Codec ID : 55
Codec ID/Hint : MP3
Duration : 42mn 38s
Bit rate mode : Constant
Bit rate : 128 Kbps
Channel(s) : 2 channels
Sampling rate : 48.0 KHz
Resolution : 16 bits
Stream size : 39.0 MiB (10%)
Alignment : Aligned on interleaves
Interleave, duration : 42 ms (1.00 video frame)
Interleave, preload duration : 504 ms
General
Complete name : D:\Ходячие мертвецы\the.walking.dead.s02e06.web-dlrip.rus.eng.novafilm.tv.avi
Format : AVI
Format/Info : Audio Video Interleave
File size : 400 MiB
Duration : 42mn 59s
Overall bit rate : 1 301 Kbps
Writing application : VirtualDubMod 1.5.10.2 (build 2540/release)
Writing library : VirtualDubMod build 2540/release
Video
Format : MPEG-4 Visual
Format profile : Streaming [email protected]
Format settings, BVOP : Yes
Format settings, QPel : No
Format settings, GMC : No warppoints
Format settings, Matrix : Default
Codec ID : XVID
Codec ID/Hint : XviD
Duration : 42mn 59s
Bit rate : 1 031 Kbps
Width : 624 pixels
Height : 352 pixels
Display aspect ratio : 16/9
Frame rate : 23.976 fps
Resolution : 24 bits
Colorimetry : 4:2:0
Scan type : Progressive
Bits/(Pixel*Frame) : 0.196
Stream size : 317 MiB (79%)
Writing library : XviD 64
Audio
Format : MPEG Audio
Format version : Version 1
Format profile : Layer 3
Codec ID : 55
Codec ID/Hint : MP3
Duration : 42mn 59s
Bit rate mode : Constant
Bit rate : 128 Kbps
Channel(s) : 2 channels
Sampling rate : 48.0 KHz
Resolution : 16 bits
Stream size : 39.4 MiB (10%)
Alignment : Aligned on interleaves
Interleave, duration : 42 ms (1.00 video frame)
Interleave, preload duration : 504 ms
Audio
Format : MPEG Audio
Format version : Version 1
Format profile : Layer 3
Codec ID : 55
Codec ID/Hint : MP3
Duration : 42mn 59s
Bit rate mode : Constant
Bit rate : 128 Kbps
Channel(s) : 2 channels
Sampling rate : 48.0 KHz
Resolution : 16 bits
Stream size : 39.4 MiB (10%)
Alignment : Aligned on interleaves
Interleave, duration : 42 ms (1.00 video frame)
Interleave, preload duration : 504 ms
General
Complete name : D:\Ходячие мертвецы\the.walking.dead.s02e07.web-dlrip.rus.eng.novafilm.tv.avi
Format : AVI
Format/Info : Audio Video Interleave
File size : 400 MiB
Duration : 42mn 48s
Overall bit rate : 1 306 Kbps
Writing application : VirtualDubMod 1.5.10.2 (build 2540/release)
Writing library : VirtualDubMod build 2540/release
Video
Format : MPEG-4 Visual
Format profile : Streaming [email protected]
Format settings, BVOP : Yes
Format settings, QPel : No
Format settings, GMC : No warppoints
Format settings, Matrix : Default
Codec ID : XVID
Codec ID/Hint : XviD
Duration : 42mn 48s
Bit rate : 1 036 Kbps
Width : 624 pixels
Height : 352 pixels
Display aspect ratio : 16/9
Frame rate : 23.976 fps
Resolution : 24 bits
Colorimetry : 4:2:0
Scan type : Progressive
Bits/(Pixel*Frame) : 0.197
Stream size : 317 MiB (79%)
Writing library : XviD 64
Audio
Format : MPEG Audio
Format version : Version 1
Format profile : Layer 3
Codec ID : 55
Codec ID/Hint : MP3
Duration : 42mn 48s
Bit rate mode : Constant
Bit rate : 128 Kbps
Channel(s) : 2 channels
Sampling rate : 48.0 KHz
Resolution : 16 bits
Stream size : 39.2 MiB (10%)
Alignment : Aligned on interleaves
Interleave, duration : 42 ms (1.00 video frame)
Interleave, preload duration : 504 ms
Audio
Format : MPEG Audio
Format version : Version 1
Format profile : Layer 3
Codec ID : 55
Codec ID/Hint : MP3
Duration : 42mn 48s
Bit rate mode : Constant
Bit rate : 128 Kbps
Channel(s) : 2 channels
Sampling rate : 48.0 KHz
Resolution : 16 bits
Stream size : 39.2 MiB (10%)
Alignment : Aligned on interleaves
Interleave, duration : 42 ms (1.00 video frame)
Interleave, preload duration : 504 ms
General
Complete name : C:\Users\Юличка\Documents\пиратка\Ходячие мертвецы\the.walking.dead.s02e08.web-dlrip.rus.eng.novafilm.tv.avi
Format : AVI
Format/Info : Audio Video Interleave
File size : 401 MiB
Duration : 42mn 54s
Overall bit rate : 1 305 Kbps
Writing application : VirtualDubMod 1.5.10.2 (build 2540/release)
Writing library : VirtualDubMod build 2540/release
Video
Format : MPEG-4 Visual
Format profile : Streaming [email protected]
Format settings, BVOP : Yes
Format settings, QPel : No
Format settings, GMC : No warppoints
Format settings, Matrix : Default
Codec ID : XVID
Codec ID/Hint : XviD
Duration : 42mn 54s
Bit rate : 1 035 Kbps
Width : 624 pixels
Height : 352 pixels
Display aspect ratio : 16/9
Frame rate : 23.976 fps
Resolution : 24 bits
Colorimetry : 4:2:0
Scan type : Progressive
Bits/(Pixel*Frame) : 0.197
Stream size : 318 MiB (79%)
Writing library : XviD 64
Audio
Format : MPEG Audio
Format version : Version 1
Format profile : Layer 3
Codec ID : 55
Codec ID/Hint : MP3
Duration : 42mn 54s
Bit rate mode : Constant
Bit rate : 128 Kbps
Channel(s) : 2 channels
Sampling rate : 48.0 KHz
Resolution : 16 bits
Stream size : 39.3 MiB (10%)
Alignment : Aligned on interleaves
Interleave, duration : 42 ms (1.00 video frame)
Interleave, preload duration : 504 ms
Audio
Format : MPEG Audio
Format version : Version 1
Format profile : Layer 3
Codec ID : 55
Codec ID/Hint : MP3
Duration : 42mn 54s
Bit rate mode : Constant
Bit rate : 128 Kbps
Channel(s) : 2 channels
Sampling rate : 48.0 KHz
Resolution : 16 bits
Stream size : 39.3 MiB (10%)
Alignment : Aligned on interleaves
Interleave, duration : 42 ms (1.00 video frame)
Interleave, preload duration : 504 ms
Внимание! Раздача ведётся путём добавления новых серий; при каждом добавлении создётся новый торрент. Чтобы начать докачку новой серии, пользователям необходимо сделать следующее:
(1) остановить скачивание,
(2) удалить старый торрент у себя из клиента (старые серии удалять не надо),
(3) скачать новый торрент и запустить его у себя в клиенте вместо старого, при этом указать клиенту путь в старую папку куда и должно происходить скачивание новых серий.
Ваш клиент при этом должен произвести хеширование (проверку) старой папки (если не производит сам - помогите ему сделать это), и будет докачивать только те серии которых у вас ещё нет. Старые серии при этом не удаляются, а продолжают раздаваться!
Eсли вы уже удалили старые серии, то предотвратить повторную закачку старых серий можно, отжав галочку в соответсвующих местах при запуске нового торрента. По возможности, желательно не удалять старые серии как можно дольше чтобы релизёр не столько продолжал раздавать старые серии, а смог сконцентрироваться на новых.
1. Открыть торрент.
2. Снять галки с тех файлов торрента, которые мы не хотим закачивать. Оставляем только на нужных нам файлах (файле).
3. Нажать О.К.
Подробнее
1) Открыть торрент

2) Снять галки с тех файлов торрента, которые мы не хотим закачивать:
либо вручную, снимая с каждого файла галку
( скрин №1)
либо, нажав кнопку "Снять метки (Select None)" , сняв сразу со всех файлов(скрин №2)
№1

№2

3) Галки оставляем только на нужных нам файлах (файле).

4) Нажать OK!!!
21.03.2012 Добавил новую 13-ю сериюМОИ РАЗДАЧИ
Download / Скачать

Хотите скачать бесплатно? Зарегистрируйтесь на сайте (ссылка на регистрацию). Pirat.ca - самый быстрый торрент трекер в рунете!

Как скачивать  ·   Что такое торрент  ·   Рейтинг и ограничения



Последний раз редактировалось: ara1205 (2013-07-21 12:49), всего редактировалось 34 раз(а)

ara1205 ®

69733

Пост 29-Окт-2011 10:13 (спустя 23 минуты)

[Q] 

Прошу модераторов сделать данный релиз Пополняймым
[Профиль]  [ЛС] 

rastayak

Лоцман

Пост 29-Окт-2011 14:18 (спустя 4 часа)

[Q] 

Начал качать... Я пять раз переподключался, проверял настройки, уже хотел провайдеру звонить. Скорости!
[Профиль]  [ЛС] 

superpostal

Морской Волк

Пост 29-Окт-2011 15:15 (спустя 57 минут)

[Q] 

спасибо!!!
[Профиль]  [ЛС] 

mentallo

Шкипер

Пост 30-Окт-2011 00:19 (спустя 9 часов)

[Q] 

Спасибо, жду третью серию, надеюсь уже завтра.
[Профиль]  [ЛС] 

nossfer

Штурман

Пост 31-Окт-2011 00:56 (спустя 1 день)

[Q] 

Мой любимый сериал)))
[Профиль]  [ЛС] 

ADL

Штурман

Пост 31-Окт-2011 19:17 (спустя 18 часов)

[Q] 

когда третья серия будет?
[Профиль]  [ЛС] 

ara1205 ®

69733

Пост 31-Окт-2011 22:01 (спустя 2 часа 43 минуты)

[Q] 

когда третья серия будет?
Приблезительно, в среду
[Профиль]  [ЛС] 

[email protected]

Лоцман

Пост 01-Ноя-2011 12:02 (спустя 14 часов)

[Q] 

а релизы от КвК или с переводом FOX Crime кто-нить будет релизить? для разнообразия :)
[Профиль]  [ЛС] 

ara1205 ®

69733

Пост 01-Ноя-2011 12:58 (спустя 55 минут)

[Q] 

а релизы от КвК или с переводом FOX Crime кто-нить будет релизить? для разнообразия :)
Этот релиз и есть от FOX Crime, путанеца произошла.
Сегодня вечером будет 3-я серия
[Профиль]  [ЛС] 

nossfer

Штурман

Пост 01-Ноя-2011 18:03 (спустя 5 часов)

[Q] 

Супер.Будем ждать.
[Профиль]  [ЛС] 

ara1205 ®

69733

Пост 01-Ноя-2011 21:54 (спустя 3 часа)

[Q] 

Добавил 3-ю серию, предупреждаю у меня отключили Инет, поэтому раздаю с Мегафоновского мадема, так что скорость не фантан, кто имеет возможность потдержите раздачу
[Профиль]  [ЛС] 

Beavis

Штурман

211

Пост 02-Ноя-2011 13:37 (спустя 15 часов)

[Q] 

Раздачу поддержу. Сериал прикольный. Жду новых серий. Топик стартеру большой спс ;-)
[Профиль]  [ЛС] 

DocSoft

Гроза морей

71

Пост 03-Ноя-2011 01:46 (спустя 12 часов)

[Q] 

Пиратка рулит. Залез в контакт, из группы узнал что новые серии есть. Но там их посмотреть не возможно 25 минут не могло видео грузануться. Ну я погонял - никак. Поискал на трекере другом - нету. Ну думаю Пираточка любимая ну так хочу посмотреть именно сейчас. Ввожу в поиск и вот оно чудо ! Качает да ещё и как качает !!! Только востанавливаться начали и всё равно порадовала.
ara1205, спасибо порадовал !
Стою на раздаче постоянно . Своим привет !!!

_________________
Всего одна Любовь !
[Профиль]  [ЛС] 

russar

Лоцман

Пост 03-Ноя-2011 19:47 (спустя 18 часов)

[Q] 

Блин!
Как качать, если торр не зарегистрирован?
[Профиль]  [ЛС] 

Nord_brother

Лоцман

Пост 03-Ноя-2011 20:16 (спустя 29 минут)

[Q] 

  Сериал слабоват конечно. После 1 и 2 серии первого сезона,когда он еще представлял что то интересное, видимо поменялись сценарии или режиссеры, но он стал сдавать позиции.
  В остальных 3-6 сериях мы видим слезы и сопли, лужайку и самое интересное, что тоже самое здание с танком, кстати танк наверно там можно использовать как постер,фото с рекламой фильма на футболках, саундтреки тоже про это танк,перед каждой рекламой на тв показывать этот танк и т.п, место которое фигурировало в первых пилотных сериях, мягко говоря одна сплошная вода. К концу 1 сезона развязка ужасна,не хватает логического завершения.
  Да и 6 серий для 50 минутного сериала, это совсем не серьезно. Далее 2 сезон, начинается естественно с передвижения, куда? что?зачем? И тут бац, как я сразу не понял когда сел за просмотр, что сейчас будет какая то трагедия на пару серий,сопли, слезы, слабые диалоги, минимум мистических и хорор музыкальных эффектов. Не удивлюсь что теперь до конца 2 сезона все события будут происходить в лесу, по 20 минут серии истеричка со светлыми и вечно грязными волосами, будет плакать, бесконечный любовный треугольник и тд. В целом очень слабо.
  Но 1 и 2 серию первого сезона,я бы субъективно оценил на более менее высокую оценку.Но до таких постапокалиптических гадзил как Иеримия и Иерихон, которые закрылись изза недостатка финансирования, конечно как до Китая. И даже не спасет участие известных актеров 2-3 плана, которые и так появляются слишком редко. ТС спасибо, за предоставленное кино
[Профиль]  [ЛС] 

Rommm

Лоцман

Пост 03-Ноя-2011 20:21 (спустя 4 минуты)

[Q] 

Как качать, если торр не зарегистрирован?
Кстати да не скачать торрент...
[Профиль]  [ЛС] 

ara1205 ®

69733

Пост 03-Ноя-2011 21:29 (спустя 1 час 7 минут)

[Q] 

всё качается
[Профиль]  [ЛС] 

гаррисмолл

Шкипер

Пост 05-Ноя-2011 23:54 (спустя 2 дня 2 часа)

[Q] 

Первый сезон смотрел на одном дыхании , а вот второй что то не очень. Пошло размазывание " по тарелке", пропал драйв , мало действия и больше соплей. Ну и мелочи напрягают - видимо разновидностей зомби несколько . Зомби из Атланты чуют человечину и прутся на свет , а трупики со второго сезона без обоняния и свет им походу ни о чём не говорит.Но поскольку на данный момент в этом жанре альтернативы нет (для меня) , буду смотреть,фильм всё же неплох (надеюсь останется на этом уровне).Всё выше изложенное моё личное мнение. За раздачу спасибо!
[Профиль]  [ЛС] 

n3n

Лоцман

Пост 07-Ноя-2011 22:51 (спустя 1 день 22 часа)

[Q] 

Господа, перезалейте уже пожалуйста, а то 3ю серию посмотреть охота.
[Профиль]  [ЛС] 

ara1205 ®

69733

Пост 08-Ноя-2011 02:36 (спустя 3 часа)

[Q] 

Господа, перезалейте уже пожалуйста, а то 3ю серию посмотреть охота.
перезалил. смотри и радуйся
[Профиль]  [ЛС] 

ara1205 ®

69733

Пост 08-Ноя-2011 11:05 (спустя 8 часов)

[Q] 

Добавлена 4-я серия
[Профиль]  [ЛС] 

nossfer

Штурман

Пост 09-Ноя-2011 01:30 (спустя 14 часов)

[Q] 

Посмотрим
[Профиль]  [ЛС] 

n3n

Лоцман

Пост 10-Ноя-2011 15:43 (спустя 1 день 14 часов)

[Q] 

ara1205, спасибо.
[Профиль]  [ЛС] 

REMO

Лоцман

Пост 10-Ноя-2011 20:04 (спустя 4 часа)

[Q] 

Большое спасибо
[Профиль]  [ЛС] 

PavelShar

Лоцман

Пост 11-Ноя-2011 23:13 (спустя 1 день 3 часа)

[Q] 

Спасибо!
[Профиль]  [ЛС] 

ara1205 ®

69733

Пост 16-Ноя-2011 23:14 (спустя 5 дней)

[Q] 

Добавил 5-ю серию, приятного просмотра. Не забываем коментирывать
[Профиль]  [ЛС] 

tuta328

Лоцман

Пост 17-Ноя-2011 02:17 (спустя 3 часа)

[Q] 

Спасибо за серию.. скорости бы ещё.. :)
[Профиль]  [ЛС] 

egor126

Гроза морей

Пост 17-Ноя-2011 08:29 (спустя 6 часов)

[Q] 

Спасибо.
[Профиль]  [ЛС] 

zmaksimz

Корсар

Пост 17-Ноя-2011 10:11 (спустя 1 час 41 минута)

[Q] 

Спасибо за сериальчик
[Профиль]  [ЛС] 
Показать сообщения:    
Ответить на тему

Текущее время: Сегодня 14:26

Часовой пояс: GMT + 4



Вы не можете начинать темы
Вы не можете отвечать на сообщения
Вы не можете редактировать свои сообщения
Вы не можете удалять свои сообщения
Вы не можете голосовать в опросах
Вы не можете прикреплять файлы к сообщениям
Вы не можете скачивать файлы

▼ Вниз