ML
     
  Уважаемый Гость!
Вы можете поддержать проект и зарегистрироваться у наших партнеров - онлайн-стратегия MyLands. При регистрации в игре Вы получите код, который сможете активировать после регистрации на pirat.ca и получить 1000 дублонов.

Ваш код:
e93cd9e43017f251127f220889864c05934e61c6
 
     

Под куполом / Under the Dome (Сезон 1, полный, 13 серий) [BaibaKo] (Джек Бендер / Jack Bender) [2013 г.] (Фантастика, Ужасы) [WEB-DLRip] (MVO)

Ответить на тему
 
Автор
Сообщение

Пост 16-Авг-2013 19:57

[Q] 

kugesan

Под куполом / Under the Dome- Русское название: Под куполом
Оригинальное название: Under the Dome
Страна: США
Год выпуска: 2013
Жанр: Фантастика, Ужасы ...-Релиз:
Перевод: Многоголосый закадровый, профессиональный
Озвучка: Юлия Котурбаш, Светлана Доманова, Артемий Мирон и Алексей Кузнецов
Автор перевода: Янина Галицкая-Режиссер: Джек Бендер / Jack Bender
В главных ролях:
Майк Фогель (Dale «Barbie» Barbara), Колин Форд (Joe McClatchey), Аиша Хиндс (Carolyn Hill), Александр Кох (Junior Rennie), Рашель Лефевр (Julia Shumway), Натали Мартинез (Linda), Дин Норрис (James «Big Jim» Rennie), Джолин Парди (Dodee), Бриттани Робертсон (Angie McAlister), Николас Стронг (Phil), Маккензи Линтц (Norrie) ...-Описание фильма:
Обычным, пригожим осенним днем, город Честерс Миллз, штат Мэн, был внезапно отрезан от остального мира невидимым силовым барьером. Самолеты врезаются в купол и падают, пылая, с небес; садовнику отрезает силовым полем руку; люди, выехавшие в соседний город по делам, не могут вернуться к своим близким; автомобили взрываются от столкновения с куполом. Никто не понимает, что это за барьер, откуда он взялся и исчезнет ли он. Дейл Барбара, ветеран конфликта в Ираке, а ныне повар, обнаруживает себя в команде с несколькими отважными жителями — Джулией Шамвей, владелицей городской газеты, помощником врача, женщиной и тремя храбрыми детьми. Против них выступает Большой Джим Ренни — местный политический деятель, который для удержания власти не остановится ни перед чем, даже перед убийством, а также его сын со своим личным «скелетом в шкафу». Но главный их противник — сам Купол…-Сезон: 1
Серии: 13 из 13 серий
Продолжительность: ~ 00:42:00 мин серия-Качество видео: WEB-DLRip
Контейнер: AVI
Видео кодек: XviD
Аудио кодек: MP3
Видео: MPEG-4 Visual at 1506 Кбит/сек, [d]720 x 400[/d] (1.800) at 23.976 fps
Аудио Rus: MPEG Audio at 192 Кбит/сек, 2 канала, 48,0 КГц
Аудио Eng: MPEG Audio at 192 Кбит/сек, 2 канала, 48,0 КГц
Cубтитры: отсутствуют
- -
  • Пилот (Pilot)
  • Пожар (The Fire)
  • Облава (Manhunt)
  • Эпидемия (Outbreak)
  • Огонь по своим (Blue on Blue)
  • Бесконечная жажда (The Endless Thirst)
  • Неидеальные круги (Imperfect Circles)
  • Кровь не вода (Thicker Than Water)
  • Четвёртая рука (The Fourth Hand)
  • Да начнутся игры (Let the Games Begin)
  • Помянешь дьявола... (Speak of the Devil)
  • Неотложные обстоятельства (Exigent Circumstances)
  • Занавес (Curtains)
-
Код:
Общее
Полное имя                               : E:\_Сериалы\Под куполом (Under the Dome)\Under the Dome 1 - Baibako\Under.the.Dome.s01e01.WEB-DLRip.XviD.Rus.Eng.BaibaKo.tv.avi
Формат                                   : AVI
Формат/Информация                        : Audio Video Interleave
Размер файла                             : 583 Мбайт
Продолжительность                        : 42 м.
Общий поток                              : 1904 Кбит/сек
Программа кодирования                    : VirtualDubMod 1.5.10.2 (build 2542/release)
Библиотека кодирования                   : VirtualDubMod build 2542/release
Видео
Идентификатор                            : 0
Формат                                   : MPEG-4 Visual
Профиль формата                          : Advanced [email protected]
Параметр BVOP формата                    : 2
Параметр QPel формата                    : Нет
Параметр GMC формата                     : Без точки перехода
Параметр матрицы формата                 : Default (H.263)
Идентификатор кодека                     : XVID
Идентификатор кодека/Подсказка           : XviD
Продолжительность                        : 42 м.
Битрейт                                  : 1506 Кбит/сек
Ширина                                   : 720 пикселей
Высота                                   : 400 пикселей
Соотношение сторон                       : 16:9
Частота кадров                           : 23,976 кадра/сек
Цветовое пространство                    : YUV
Субдискретизация насыщенности            : 4:2:0
Битовая глубина                          : 8 бит
Тип развёртки                            : Прогрессивная
Метод сжатия                             : С потерями
Бит/(Пиксели*Кадры)                      : 0.218
Размер потока                            : 461 Мбайт (79%)
Библиотека кодирования                   : XviD 1.2.1 (UTC 2008-12-04)
Аудио #1
Идентификатор                            : 1
Формат                                   : MPEG Audio
Версия формата                           : Version 1
Профиль формата                          : Layer 3
Режим                                    : Joint stereo
Расширение режима                        : MS Stereo
Идентификатор кодека                     : 55
Идентификатор кодека/Подсказка           : MP3
Продолжительность                        : 42 м.
Вид битрейта                             : Постоянный
Битрейт                                  : 192 Кбит/сек
Каналы                                   : 2 канала
Частота                                  : 48,0 КГц
Метод сжатия                             : С потерями
Размер потока                            : 58,8 Мбайт (10%)
Выравнивание                             : Соединение по промежуткам
Продолжительность промежутка             : 42  мс. (1,00 видеокадр)
Время предзагрузки промежутка            : 504  мс.
Библиотека кодирования                   : LAME3.99r
Настройки программы                      : -m j -V 4 -q 2 -lowpass 18.6 -b 192
Аудио #2
Идентификатор                            : 2
Формат                                   : MPEG Audio
Версия формата                           : Version 1
Профиль формата                          : Layer 3
Режим                                    : Joint stereo
Расширение режима                        : MS Stereo
Идентификатор кодека                     : 55
Идентификатор кодека/Подсказка           : MP3
Продолжительность                        : 42 м.
Вид битрейта                             : Постоянный
Битрейт                                  : 192 Кбит/сек
Каналы                                   : 2 канала
Частота                                  : 48,0 КГц
Метод сжатия                             : С потерями
Размер потока                            : 58,8 Мбайт (10%)
Выравнивание                             : Соединение по промежуткам
Продолжительность промежутка             : 42  мс. (1,00 видеокадр)
Время предзагрузки промежутка            : 504  мс.
Библиотека кодирования                   : LAME3.99r
Настройки программы                      : -m j -V 4 -q 2 -lowpass 18.6 -b 192
672912 & RT
-
-Скриншоты:
-
-
Внимание! Раздача ведётся путём добавления новых серий; при каждом добавлении создётся новый торрент. Чтобы начать докачку новой серии, пользователям необходимо сделать следующее:
(1) остановить скачивание,
(2) удалить старый торрент у себя из клиента (старые серии удалять не надо),
(3) скачать новый торрент и запустить его у себя в клиенте вместо старого, при этом указать клиенту путь в старую папку куда и должно происходить скачивание новых серий.
Ваш клиент при этом должен произвести хеширование (проверку) старой папки (если не производит сам - помогите ему сделать это), и будет докачивать только те серии которых у вас ещё нет. Старые серии при этом не удаляются, а продолжают раздаваться!
Eсли вы уже удалили старые серии, то предотвратить повторную закачку старых серий можно, отжав галочку в соответствующих местах при запуске нового торрента.
-
«Под Куполом» (Under the Dome) — роман Стивена Кинга, который опубликован в США 10 ноября 2009 года. Роман является переработанной идеей, с которой Кинг работал уже дважды, в конце 1970-х годов и в начале 1980-х — изначально под названием «Под Куполом», а потом «Каннибалы» (The Cannibals). Оба раза автор забрасывал работу, возвратившись к этому материалу лишь во второй половине 2000-х годов.
-Добавлена тринадцатая, заключительная, серия первого сезона
Download / Скачать

Хотите скачать бесплатно? Зарегистрируйтесь на сайте (ссылка на регистрацию). Pirat.ca - самый быстрый торрент трекер в рунете!

Как скачивать  ·   Что такое торрент  ·   Рейтинг и ограничения



Последний раз редактировалось: kugesan (2013-09-18 20:10), всего редактировалось 5 раз(а)

dalikat

Штурман

Пост 17-Авг-2013 07:22 (спустя 11 часов)

[Q] 

Спасибо!!!
[Профиль]  [ЛС] 

kugesan ®

56634

Пост 17-Авг-2013 16:16 (спустя 8 часов)

[Q] 

dalikat, Пожалуйста. Приятного просмотра!!!

_________________

В мире две бесконечности: вселенная и человеческая глупость - Альберт Эйнштен
«Можно вытащить человека из грязи, но нельзя вытащить грязь из человека»!
[Профиль]  [ЛС] 

kugesan ®

56634

Пост 22-Авг-2013 22:54 (спустя 5 дней)

[Q] 

Добавлена двенадцатая серия

_________________

В мире две бесконечности: вселенная и человеческая глупость - Альберт Эйнштен
«Можно вытащить человека из грязи, но нельзя вытащить грязь из человека»!
[Профиль]  [ЛС] 
Показать сообщения:    
Ответить на тему

Текущее время: Сегодня 04:29

Часовой пояс: GMT + 4



Вы не можете начинать темы
Вы не можете отвечать на сообщения
Вы не можете редактировать свои сообщения
Вы не можете удалять свои сообщения
Вы не можете голосовать в опросах
Вы не можете прикреплять файлы к сообщениям
Вы не можете скачивать файлы

▼ Вниз