ML
     
  Уважаемый Гость!
Вы можете поддержать проект и зарегистрироваться у наших партнеров - онлайн-стратегия MyLands. При регистрации в игре Вы получите код, который сможете активировать после регистрации на pirat.ca и получить 1000 дублонов.

Ваш код:
73640f24f8a0f579e128ea7346fd2db2b1009143
 
     

Банши / Banshee (1 сезон: 1-10 серии из 10) (Мигель Сапочник / Miguel Sapochnik, Грег Яйтанс / Greg Yaitanes) [2013, Драма, криминал, детектив, HDTVRip] DVO (NewStudio)

Ответить на тему
 
Автор
Сообщение

Пост 17-Сен-2013 01:34

[Q] 

Пират

Банши / Banshee
(1 сезон: 1-10 серии из 10)
Год выпуска: 2013
Производство: США, Your Face Goes Here Entertainment, Cinemax
Жанр: Драма, криминал, детектив
Продолжительность: 10 x ~ 00:45:00
Перевод: Професиональный (двухголосый закадровый) (NewStudio)
Режиссер:Мигель Сапочник / Miguel Sapochnik, Грег Яйтанс / Greg Yaitanes
В ролях: Триесте Келли Данн, Мэтт Сервитто, Энтони Старр, Рас Блэквелл, Ивана Миличевич, Райанн Шэйн, Фрэнки Фэйзон, Деметриус Гросс, Мэттью Ройч, Хун Ли, Ульрих Томсен, Кристофер Козорт, Дерек Сесил, Стив Култер, Джозеф Майсснер
Описание: Главный герой Banshee — бывший заключенный и профессиональный вор, который присваивает себе личность шерифа Банши (городка в Пенсильвании), где он продолжает нарушать закон, хотя ему не дают покоя гангстеры, которых он предал много лет назад.
01. Пилот / Pilot
02. Рейв / The Rave
03. Знакомитесь, новый босс / Meet the New Boss
04. Оглохнуть наполовину или умереть полностью / Half Deaf Is Better Than All Dead
05. Кровные узы / The Kindred
06. Викс / Wicks
07. Всадник на бледном коне / Behold a Pale Rider
08. Будем жить вечно / We Shall Live Forever
09. Вечный ковбой / Always the Cowboy
10. Смесь безумия / A Mixture of Madness
Качество: HDTVRip
Формат: AVI
Видео кодек: XviD
Аудио кодек: AC3
Видео: XviD, ~ 1999 Кбит/с, 720x400, 23,976 кадра/сек
Аудио: Русский, AC3, 6 ch, 384 Кбит/с 48 kHz
Аудио 2: Английский, AC3, 6 ch, 384 Кбит/с 48 kHz
Общее
Полное имя : E:\Раздачи\Banshee Season 1\Banshee.s01e01.rus.eng_pirat.ca.avi
Формат : AVI
Формат/Информация : Audio Video Interleave
Размер файла : 1,17 Гбайт
Продолжительность : 1 ч. 0 м.
Общий поток : 2782 Кбит/сек
Программа кодирования : VirtualDubMod 1.5.10.2 (build 2540/release)
Библиотека кодирования : VirtualDubMod build 2540/release
Видео
Идентификатор : 0
Формат : MPEG-4 Visual
Профиль формата : Advanced [email protected]
Параметр BVOP формата : 1
Параметр QPel формата : Нет
Параметр GMC формата : Без точки перехода
Параметр матрицы формата : Default (MPEG)
Идентификатор кодека : XVID
Идентификатор кодека/Подсказка : XviD
Продолжительность : 1 ч. 0 м.
Битрейт : 2000 Кбит/сек
Ширина : 720 пикселей
Высота : 400 пикселей
Соотношение сторон : 16:9
Частота кадров : 23,976 кадра/сек
Цветовое пространство : YUV
Субдискретизация насыщенности : 4:2:0
Битовая глубина : 8 бит
Тип развёртки : Прогрессивная
Метод сжатия : С потерями
Бит/(Пиксели*Кадры) : 0.290
Размер потока : 863 Мбайт (72%)
Библиотека кодирования : XviD 65
Аудио #1
Идентификатор : 1
Формат : AC-3
Формат/Информация : Audio Coding 3
Расширение режима : CM (complete main)
Параметр Endianness формата : Big
Идентификатор кодека : 2000
Продолжительность : 1 ч. 0 м.
Вид битрейта : Постоянный
Битрейт : 384 Кбит/сек
Каналы : 6 каналов
Расположение каналов : Front: L C R, Side: L R, LFE
Частота : 48,0 КГц
Битовая глубина : 16 бит
Метод сжатия : С потерями
Размер потока : 166 Мбайт (14%)
Выравнивание : Разделение по промежуткам
Продолжительность промежутка : 42 мс. (1,00 видеокадр)
Время предзагрузки промежутка : 500 мс.
Аудио #2
Идентификатор : 2
Формат : AC-3
Формат/Информация : Audio Coding 3
Расширение режима : CM (complete main)
Параметр Endianness формата : Big
Идентификатор кодека : 2000
Продолжительность : 1 ч. 0 м.
Вид битрейта : Постоянный
Битрейт : 384 Кбит/сек
Каналы : 6 каналов
Расположение каналов : Front: L C R, Side: L R, LFE
Частота : 48,0 КГц
Битовая глубина : 16 бит
Метод сжатия : С потерями
Размер потока : 166 Мбайт (14%)
Выравнивание : Разделение по промежуткам
Продолжительность промежутка : 42 мс. (1,00 видеокадр)
Время предзагрузки промежутка : 500 мс.



Download / Скачать

Хотите скачать бесплатно? Зарегистрируйтесь на сайте (ссылка на регистрацию). Pirat.ca - самый быстрый торрент трекер в рунете!

Как скачивать  ·   Что такое торрент  ·   Рейтинг и ограничения

Пост 17-Сен-2013 06:52 (спустя 5 часов)

Топик был перенесен из форума Зарубежные сериалы (Трюм) в форум Зарубежные сериалы
erchine
 

lexx

Корсар

129

Пост 17-Сен-2013 09:26 (спустя 7 часов)

[Q] 

спасибо крутецкий сериал
[Профиль]  [ЛС] 

Пират ®

1474

Пост 19-Сен-2013 00:16 (спустя 1 день 14 часов)

[Q] 

423653спасибо крутецкий сериал
ay

_________________
Всё, что с нами происходит - результат наших прошлых поступков. Наше будущее зависит от того, что мы делаем сейчас...
[Профиль]  [ЛС] 

sashafandey

Морской Волк

Пост 25-Дек-2013 23:50 (спустя 3 месяца 6 дней)

[Q] 

как Я буду яво глидеть. Ядр
[Профиль]  [ЛС] 

poisk91

Штурман

Пост 18-Янв-2014 21:31 (спустя 23 дня)

[Q] 

всем советую,хорощий! az
Добавлено спустя 1 минута 54 секунды:
когда второй сезон будет? dt
[Профиль]  [ЛС] 

Sollius

Лоцман

Пост 01-Фев-2014 16:05 (спустя 13 дней)

[Q] 

Уже 3 серии в озвучке видел
[Профиль]  [ЛС] 

Пират ®

1474

Пост 02-Фев-2014 01:56 (спустя 9 часов)

[Q] 

poisk91, Sollius, нате:
Банши / Banshee / Сезон: 2 / Серии: 1-3 (Мигель Сапочник / Miguel Sapochnik, Грег Яйтанс / Greg Yaitanes) [2014 г., Драма, криминал, детектив, HDTVRip] DVO (Пифагор)

_________________
Всё, что с нами происходит - результат наших прошлых поступков. Наше будущее зависит от того, что мы делаем сейчас...
[Профиль]  [ЛС] 

cssergey

Корсар

Пост 03-Фев-2014 19:45 (спустя 1 день 17 часов)

[Q] 

Раздающему респект! Спасибо!!! .
[Профиль]  [ЛС] 

Пират ®

1474

Пост 04-Фев-2014 02:29 (спустя 6 часов)

[Q] 

cssergey, да невашто! fh

_________________
Всё, что с нами происходит - результат наших прошлых поступков. Наше будущее зависит от того, что мы делаем сейчас...
[Профиль]  [ЛС] 

Пират ®

1474

Пост 27-Фев-2014 00:03 (спустя 22 дня)

[Q] 

извините, ребят - раздачу эту поддерживать не смогу более - посмотрел сериал и не понравилось слишком много глупого и бессмысленного насилия и драк здесь...
anime32

_________________
Всё, что с нами происходит - результат наших прошлых поступков. Наше будущее зависит от того, что мы делаем сейчас...
[Профиль]  [ЛС] 

padaggi

Штурман

Пост 19-Май-2014 01:04 (спустя 2 месяца 20 дней)

[Q] 

Посмотрел 1 и 2 серии на 2х2 в выходные, очень понравился, но очень неохота смотреть по серии в день. Когда скачаю постою на раздаче. !COOL!
[Профиль]  [ЛС] 

fex

Морской Волк

Пост 08-Мар-2015 21:13 (спустя 9 месяцев 20 дней)

[Q] 

Спасибо )))))))))))))))))))))))))

_________________
Всегда телефон в микроволновке заряжаю, на две минуты ставлю. Оперативку отлично очищает и удаляет системный мусор.
[Профиль]  [ЛС] 

pdb08

Легенда

Пост 14-Мар-2015 13:56 (спустя 5 дней)

[Q] 

Спасибо !COOL!

_________________
[Профиль]  [ЛС] 

pdb08

Легенда

Пост 21-Мар-2015 21:51 (спустя 7 дней)

[Q] 

Смотрел! Нормально, но девки .......? Автору респект!!!

_________________
[Профиль]  [ЛС] 

pdb08

Легенда

Пост 28-Мар-2015 14:49 (спустя 6 дней)

[Q] 

Голливуд - одно слово))))))

_________________
[Профиль]  [ЛС] 
Показать сообщения:    
Ответить на тему

Текущее время: Сегодня 22:36

Часовой пояс: GMT + 4



Вы не можете начинать темы
Вы не можете отвечать на сообщения
Вы не можете редактировать свои сообщения
Вы не можете удалять свои сообщения
Вы не можете голосовать в опросах
Вы не можете прикреплять файлы к сообщениям
Вы не можете скачивать файлы

▼ Вниз