ML
     
  Уважаемый Гость!
Вы можете поддержать проект и зарегистрироваться у наших партнеров - онлайн-стратегия MyLands. При регистрации в игре Вы получите код, который сможете активировать после регистрации на pirat.ca и получить 1000 дублонов.

Ваш код:
a01a592a88af5f9996a6d1baec61b18a1769954d
 
     

Хищные пташки / Birds of Prey / Сезон: 1 / Серии: 1-13 (Крис Лонг, Брайан Роббинс / Chris Long, Brian Robbins) [2002-2003 г., Фантастика, фэнтези, боевик, драма, приключения, HDTVRip] DVO (Bobby Jack и Nickelson) + Original (Eng)

Ответить на тему
 
Автор
Сообщение

Пост 25-Сен-2013 14:54

[Q] 

UnSlayeR

Флибустьер

-Хищные пташки / Birds of Prey-Сезон: 1 / Серии: 1-13- Производство: США
Жанр: Фантастика, фэнтези, боевик, драма, приключения
Год выпуска: 2002-2003 г.
Продолжительность: 00:44:00
Мировая премьера: 9 октября 2002
Перевод: Любительский (двухголосый, закадровый) [Bobby Jack и Nickelson]
Оригинальный аудиопоток: английский
Режиссер: Крис Лонг, Брайан Роббинс / Chris Long, Brian Robbins-В ролях: Эшли Скотт, Дина Мейер, Рэйчел Скарстен, Шемар Мур, Йен Эберкромби, Миа Сара, Шон Кристиан, Брент Секстон, Роберт Патрик Бенедикт, Кристофер МакНили-Описание: Сериал является вольным продолжением и переосмыслением мифологии о Бэтмене. Действие происходит в недалёком будущем (относительно традиционной бэт-вселенной) в Нью Готэм Сити. Тёмный рыцарь давно не при делах, но его наследие не забыто. Барбара Гордон и Хелена Кайл объединяют силы для наведения порядка в мрачном городе и борьбы с так называемыми металюдьми (мутантами, иными словами).
Вооруженные различными высокотехнологичными приспособлениями, сверхчеловеческими навыками Хелены, знаниями Барбары и даром ясновидения случайно попавшей к ним девушки Дайны, «Хищные Птицы» несут возмездие всем, кто его заслужил, пытаясь противостоять злодейке Харлин Квинзелл, мечтающей о безграничной власти над городом и расплате за свою утраченную любовь…-
Качество видео: HDTVRip
Контейнер: AVI
Видео кодек: XviD
Аудио кодек: MP3
Видео: 624x352, 826 Kbps, 0.157 bit/pixel, 23.976 fps
Аудио: 192 Kbps, 2ch, 48.0 KHz DVO
Аудио #2: 192 Kbps, 2ch, 48.0 KHz Eng
Cубтитры: Русские
1 серия - Pilot - Пилот
2 серия - Slick - Скользкий
3 серия - Prey For The Hunter - Охотничья добыча
4 серия - Three Birds And A Baby - Три Птицы и Ребенок
5 серия - Sins Of The Mother - Грехи Матери
6 серия - Primal Scream - Первобытный Визг
7 серия - Split - Раскол
8 серия - Lady Shiva - Леди Шива
9 серия - Nature Of The Beast - Настоящий Зверь
10 серия - Gladiatrix - Гладиатрикс
11 серия - Reunion - Воссоединение
12 серия - Feat Of Clay - Глиняное Искусство
13 серия - Devil's Eyes - Глаза Дьявола
Format : AVI
Format/Info : Audio Video Interleave
File size : 417 MiB
Duration : 47mn 40s
Overall bit rate : 1 224 Kbps
Writing application : VirtualDubMod 1.5.10.2 (build 2540/release)
Writing library : VirtualDubMod build 2540/release
Video
ID : 0
Format : MPEG-4 Visual
Format profile : Advanced [email protected]
Format settings, BVOP : Yes
Format settings, QPel : No
Format settings, GMC : No warppoints
Format settings, Matrix : Default (H.263)
Muxing mode : Packed bitstream
Codec ID : XVID
Codec ID/Hint : XviD
Duration : 47mn 40s
Bit rate : 826 Kbps
Width : 624 pixels
Height : 352 pixels
Display aspect ratio : 16:9
Frame rate : 23.976 fps
Color space : YUV
Chroma subsampling : 4:2:0
Bit depth : 8 bits
Scan type : Progressive
Compression mode : Lossy
Bits/(Pixel*Frame) : 0.157
Stream size : 282 MiB (67%)
Writing library : XviD 1.1.0 (UTC 2005-11-22)
Audio #1
ID : 1
Format : MPEG Audio
Format version : Version 1
Format profile : Layer 3
Mode : Joint stereo
Codec ID : 55
Codec ID/Hint : MP3
Duration : 47mn 40s
Bit rate mode : Constant
Bit rate : 192 Kbps
Channel(s) : 2 channels
Sampling rate : 48.0 KHz
Compression mode : Lossy
Stream size : 65.5 MiB (16%)
Alignment : Aligned on interleaves
Interleave, duration : 42 ms (1.00 video frame)
Interleave, preload duration : 504 ms
Audio #2
ID : 2
Format : MPEG Audio
Format version : Version 1
Format profile : Layer 3
Mode : Joint stereo
Codec ID : 55
Codec ID/Hint : MP3
Duration : 47mn 40s
Bit rate mode : Constant
Bit rate : 192 Kbps
Channel(s) : 2 channels
Sampling rate : 48.0 KHz
Compression mode : Lossy
Stream size : 65.5 MiB (16%)
Alignment : Aligned on interleaves
Interleave, duration : 42 ms (1.00 video frame)
Interleave, preload duration : 504 m
Доп. Информация: Это единственный перевод сериала. В России на телевидении не транслировался. Из-за низких рейтингов был закрыт после 1-го сезона, продолжения не будет.
Download / Скачать

Хотите скачать бесплатно? Зарегистрируйтесь на сайте (ссылка на регистрацию). Pirat.ca - самый быстрый торрент трекер в рунете!

Как скачивать  ·   Что такое торрент  ·   Рейтинг и ограничения

Пост 25-Сен-2013 18:52 (спустя 3 часа)

Топик был перенесен из форума Зарубежные сериалы (Трюм) в форум Зарубежные сериалы
erchine
 
Показать сообщения:    
Ответить на тему

Текущее время: Сегодня 09:51

Часовой пояс: GMT + 4



Вы не можете начинать темы
Вы не можете отвечать на сообщения
Вы не можете редактировать свои сообщения
Вы не можете удалять свои сообщения
Вы не можете голосовать в опросах
Вы не можете прикреплять файлы к сообщениям
Вы не можете скачивать файлы

▼ Вниз