ML
     
  Уважаемый Гость!
Вы можете поддержать проект и зарегистрироваться у наших партнеров - онлайн-стратегия MyLands. При регистрации в игре Вы получите код, который сможете активировать после регистрации на pirat.ca и получить 1000 дублонов.

Ваш код:
a978488e62322cd72e113ab723b8a7fdc10eb9b9
 
     

Соединенные Штаты Тары / United States of Tara / Сезон: 1-3 / Серии: 36 (Крейг Зиск, Крэйг Гиллеспи / Craig Gillespie, Craig Zisk) [2009-2011 г., драма, комедия, HDTVRip] VO (ProjektorShow)

Ответить на тему
 
Автор
Сообщение

Пост 26-Сен-2013 12:54

[Q] 

UnSlayeR

Флибустьер

-Соединенные Штаты Тары / United States of Tara-- Производство: США, Showtime
Жанр: драма, комедия
Год выпуска: 2009-2011 г.
Продолжительность: 36x00:22:00
Мировая премьера: 18 января 2009
Перевод: Любительский (одноголосый, закадровый) [ProjektorShow]
Режиссер: Крейг Зиск, Крэйг Гиллеспи / Craig Gillespie, Craig Zisk-В ролях: Тони Коллетт, Джон Корбетт, Розмари ДеУитт, Кейр Гилкрист, Бри Ларсон, Натан Кордри, Эндрю Лоуренс, Валери Махаффей, Пэттон Освальт, Джессика Ст. Клэр-Описание: Необычная комедия телеканала Showtime о женщине Таре - матери двоих детей и примерной жене. Вы скажете: "Что же тут необычного?" Однако, есть одно "но"... Тара страдает диссоциативным расстройством личности, а говоря по-простому, у неё множественное раздвоение личности. Иногда она Тара - любящая мать и жена, иногда она Ти - девочка-подросток, любящая тратить деньги и развлекаться, иногда она мужик Бак - любящий пиво и ненавидящий геев, а иногда она Эллис - старомодная домохозяйка - чистюля. Главную роль в сериале исполняет неподражаемая Тони Коллетт.-
Качество видео: HDTVRip
Контейнер: AVI
Видео кодек: XviD
Аудио кодек: MP3
Видео: 624x352, ~991 kbps avg, 23.976 fps, 0.19 bit/pixel
Аудио: ~128.00 kbps, 2 ch, 44 kHz
Cубтитры: отсутствуют
General
Complete name : United.States.of.Tara.S03E01.ProjektorShow.avi
Format : AVI
Format/Info : Audio Video Interleave
File size : 232 MiB
Duration : 28mn 40s
Overall bit rate : 1 129 Kbps
Writing application : transcode-1.0.6
Writing library : VirtualDub build 32839/release
Video
ID : 0
Format : MPEG-4 Visual
Format profile : Advanced [email protected]
Format settings, BVOP : Yes
Format settings, QPel : No
Format settings, GMC : No warppoints
Format settings, Matrix : Default (H.263)
Codec ID : XVID
Codec ID/Hint : XviD
Duration : 28mn 40s
Bit rate : 992 Kbps
Width : 624 pixels
Height : 352 pixels
Display aspect ratio : 16:9
Frame rate : 23.976 fps
Resolution : 8 bits
Colorimetry : 4:2:0
Scan type : Progressive
Bits/(Pixel*Frame) : 0.188
Stream size : 203 MiB (88%)
Writing library : XviD 1.2.1 (UTC 2008-12-04)
Audio
ID : 1
Format : MPEG Audio
Format version : Version 1
Format profile : Layer 3
Mode : Joint stereo
Format_Settings_ModeExtension : MS Stereo
Codec ID : 55
Codec ID/Hint : MP3
Duration : 28mn 40s
Bit rate mode : Constant
Bit rate : 128 Kbps
Channel(s) : 2 channels
Sampling rate : 44.1 KHz
Stream size : 26.2 MiB (11%)
Alignment : Split accross interleaves
Внимание! Сериал содержит ненормативную лексику.
Download / Скачать

Хотите скачать бесплатно? Зарегистрируйтесь на сайте (ссылка на регистрацию). Pirat.ca - самый быстрый торрент трекер в рунете!

Как скачивать  ·   Что такое торрент  ·   Рейтинг и ограничения

Показать сообщения:    
Ответить на тему

Текущее время: Сегодня 22:09

Часовой пояс: GMT + 4



Вы не можете начинать темы
Вы не можете отвечать на сообщения
Вы не можете редактировать свои сообщения
Вы не можете удалять свои сообщения
Вы не можете голосовать в опросах
Вы не можете прикреплять файлы к сообщениям
Вы не можете скачивать файлы

▼ Вниз