ML
     
  Уважаемый Гость!
Вы можете поддержать проект и зарегистрироваться у наших партнеров - онлайн-стратегия MyLands. При регистрации в игре Вы получите код, который сможете активировать после регистрации на pirat.ca и получить 1000 дублонов.

Ваш код:
ba41f7961e0b4717aed6a401d955262223b8f6c4
 
     

Последний человек на Земле / The Last Man on Earth / Сезон 2 / Серии: 18 из 18 (Фил Лорд / Phil Lord, ...) [2015г., фантастика, боевик, комедия, ... WEB-DLRip 1080p] VO (Кубик в Кубе) + Original (Eng) [Финал]

Ответить на тему
 
Автор
Сообщение

Пост 28-Сен-2013 10:35

[Q] 

kugesan

Последний человек на Земле
The Last Man on Earth
- Русское название: Последний человек на Земле
Оригинальное название: The Last Man on Earth
Страна: США
Год выпуска: 2015
Жанр: фантастика, боевик, комедия, ...-Релиз: &
Перевод: Профессиональный (двухголосый , закадровый)
Оригинальный аудиопоток: английский-Над релизом работали:
Работа с видео: whip93
Работа со звуком: messafan
Перевод: El_Brujo-Премьера (мир): 1 марта 2015-Режиссер: Фил Лорд / Phil Lord, Кристофер Миллер / Christopher Miller, Питер Атенсио / Peter Atencio, ...
Джон Соломон, Фил Лорд, Кристофер Миллер, ...
В главных ролях: Клеопатра Коулмэн / Cleopatra Coleman, Дженьюэри Джонс / January Jones, Мэл Родригез / Mel Rodriguez, Кристен Шаал / Kristen Schaal, Уилл Форте / Will Forte, ...-Описание фильма:
Фил Миллер когда-то был просто обычным парнем, который любил свою семью и ненавидел свою работу в банке — теперь он последняя надежда человечества. Найдет ли он когда-нибудь другого живого человека на планете?-Сезон: 2
Серии: 18 из 18 серий
Продолжительность: ~ 00:23:00 мин серия-
Качество видео: WEB-DL 1080p
Контейнер: MKV
Видео кодек: AVC ([email protected])
Аудио кодек: AC-3
Видео: AVC at 4853 Кбит/сек: 1920 x 1080 (1.778) at 23.976 fps
Аудио Rus: AC-3 at 384 Кбит/сек: 6 каналов, 48,0 КГц |Кубик в Кубе|
Аудио Eng: AC-3 at 384 Кбит/сек: 6 каналов, 48,0 КГц |Original|
Cубтитры: отсутствуют
-
-
  • Есть ли кто-нибудь там? (Is There Anybody Out There?)
  • Бу (The Boo)
  • Мертвец идет (Dead Man Walking)
  • От C до T (C to the T)
  • Сверчки (Crickets)
  • Живой провод (A Real Live Wire)
  • Детские шаги (Baby Steps)
  • Нет быка (No Bull)
  • Секретный Санта (Secret Santa)
  • Тихая ночь (Silent Night)
  • Тьма кромешная (Pitch Black)
  • Вальгалла (Valhalla)
  • Рыбное блюдо (Fish in the Dish)
  • Торможение (Skidmark)
  • Безымянный палец (Fourth Finger)
  • Медленно падая (Falling Slowly)
  • Умный и глупый (Smart and Stupid)
  • Годы исследований коту под хвост (30 Years of Science Down the Tubes)
-
Общее
Уникальный идентификатор : 228795035610892461453284000163345566003 (0xAC20522E6EEDCE83B3F1B8507A718933)
Полное имя : E:\_Сериалы\_Сериалы\Последний мужик на Земле\The.Last.Man.On.Earth.S02.WEB-DL.1080p.CasStudioTV\The.Last.Man.On.Earth.S02E01.WEB-DL.1080p.CasStudioTV.mkv
Формат : Matroska
Версия формата : Version 4 / Version 2
Размер файла : 977 Мбайт
Продолжительность : 23 м.
Общий поток : 5735 Кбит/сек
Дата кодирования : UTC 2015-09-29 14:34:01
Программа кодирования : mkvmerge v6.9.1 ('Blue Panther') 32bit built on Apr 18 2014 18:15:44
Библиотека кодирования : libebml v1.3.0 + libmatroska v1.4.1
Видео
Идентификатор : 1
Формат : AVC
Формат/Информация : Advanced Video Codec
Профиль формата : [email protected]
Параметр CABAC формата : Да
Параметр ReFrames формата : 4 кадра
Идентификатор кодека : V_MPEG4/ISO/AVC
Продолжительность : 23 м.
Битрейт : 4853 Кбит/сек
Ширина : 1920 пикселей
Высота : 1080 пикселей
Соотношение сторон : 16:9
Режим частоты кадров : Постоянный
Частота кадров : 23,976 кадра/сек
Цветовое пространство : YUV
Субдискретизация насыщенности : 4:2:0
Битовая глубина : 8 бит
Тип развёртки : Прогрессивная
Бит/(Пиксели*Кадры) : 0.098
Размер потока : 827 Мбайт (85%)
Язык : English
Default : Да
Forced : Нет
Цветовой диапазон : Limited
Основные цвета : BT.709
Характеристики трансфера : BT.709
Коэффициенты матрицы : BT.709
Аудио #1
Идентификатор : 2
Формат : AC-3
Формат/Информация : Audio Coding 3
Расширение режима : CM (complete main)
Параметр Endianness формата : Big
Идентификатор кодека : A_AC3
Продолжительность : 23 м.
Вид битрейта : Постоянный
Битрейт : 384 Кбит/сек
Каналы : 6 каналов
Расположение каналов : Front: L C R, Side: L R, LFE
Частота : 48,0 КГц
Метод сжатия : С потерями
Размер потока : 65,4 Мбайт (7%)
Заголовок : KvK
Язык : Russian
Default : Да
Forced : Нет
Аудио #2
Идентификатор : 3
Формат : AC-3
Формат/Информация : Audio Coding 3
Расширение режима : CM (complete main)
Параметр Endianness формата : Big
Идентификатор кодека : A_AC3
Продолжительность : 23 м.
Вид битрейта : Постоянный
Битрейт : 384 Кбит/сек
Каналы : 6 каналов
Расположение каналов : Front: L C R, Side: L R, LFE
Частота : 48,0 КГц
Метод сжатия : С потерями
Размер потока : 65,4 Мбайт (7%)
Заголовок : original
Язык : English
Default : Нет
Forced : Нет
-
-Скриншоты:
-
-
1. Открыть торрент
2. Снять галки с тех файлов торрента, которые мы не хотим закачивать. Оставляем только на нужных нам файлах (файле).
3. Нажать О.К.
В клиенте utorrent
Инструкция
1) Открыть торрент

2) Снять галки с тех файлов торрента, которые мы не хотим закачивать:
* либо вручную, снимая с каждого файла галку( скрин №1)
* либо, нажав кнопку "Снять метки (Select None)", сняв сразу со всех файлов(скрин №2)
№1

№2

Оставляем только на нужных нам файлах (файле).

3)Нажать О.К
-Добавлена восемнадцатая, заключительная, серия второго сезона-
Download / Скачать

Хотите скачать бесплатно? Зарегистрируйтесь на сайте (ссылка на регистрацию). Pirat.ca - самый быстрый торрент трекер в рунете!

Как скачивать  ·   Что такое торрент  ·   Рейтинг и ограничения



Последний раз редактировалось: kugesan (2016-09-22 19:31), всего редактировалось 47 раз(а)

Golden

Морской Волк

Пост 30-Сен-2015 16:54 (спустя 2 года)

[Q] 

!COOL! Спасибо!!!
[Профиль]  [ЛС] 

cssergey

Корсар

Пост 30-Сен-2015 17:01 (спустя 6 минут)

[Q] 

Супер! Раздающему респект!
часто серии будут появляться интересно
[Профиль]  [ЛС] 

pdb08

Легенда

Пост 30-Сен-2015 17:04 (спустя 2 минуты)

[Q] 

Спасибо!!! за труд!

_________________
[Профиль]  [ЛС] 

kugesan ®

56710

Пост 30-Сен-2015 17:37 (спустя 32 минуты)

[Q] 

Приятного просмотра!!!
cssergey, По четвергам в оригинале, плюс пару дней на перевод.

_________________

В мире две бесконечности: вселенная и человеческая глупость - Альберт Эйнштен
«Можно вытащить человека из грязи, но нельзя вытащить грязь из человека»!
[Профиль]  [ЛС] 

kotafanas

Морской Волк

95

Пост 30-Сен-2015 22:33 (спустя 4 часа)

[Q] 

Ура!!! Вернулся последний мужик))))

_________________



[Профиль]  [ЛС] 

Михаэль12345

Шкипер

Пост 25-Окт-2015 19:38 (спустя 24 дня)

[Q] 

Круто! Спасибо!!! !COOL! Спасибо!!!
[Профиль]  [ЛС] 

Васис

Корсар

1029

Пост 08-Дек-2015 15:28 (спустя 1 месяц 13 дней)

[Q] 

Супер! Лови бочку

_________________
[Профиль]  [ЛС] 

agm

Штурман

Пост 27-Дек-2015 15:10 (спустя 18 дней)

[Q] 

Поздновато. Уже в другом переводе посмотрел.
Долго переводят, к сожалению.
Да и сериал скучный стал по сравнению с первым сезоном.
Из пальца сюжет высасывают...
[Профиль]  [ЛС] 

kugesan ®

56710

Пост 16-Апр-2016 21:37 (спустя 3 месяца 20 дней)

[Q] 

Приятного просмотра!!!

_________________

В мире две бесконечности: вселенная и человеческая глупость - Альберт Эйнштен
«Можно вытащить человека из грязи, но нельзя вытащить грязь из человека»!
[Профиль]  [ЛС] 

civic_85

Корсар

Пост 15-Июл-2016 22:49 (спустя 2 месяца 29 дней)

[Q] 

Интересно почему от лост филма нету

_________________
[Профиль]  [ЛС] 
Показать сообщения:    
Ответить на тему

Текущее время: Сегодня 14:47

Часовой пояс: GMT + 4



Вы не можете начинать темы
Вы не можете отвечать на сообщения
Вы не можете редактировать свои сообщения
Вы не можете удалять свои сообщения
Вы не можете голосовать в опросах
Вы не можете прикреплять файлы к сообщениям
Вы не можете скачивать файлы

▼ Вниз