ML
     
  Уважаемый Гость!
Вы можете поддержать проект и зарегистрироваться у наших партнеров - онлайн-стратегия MyLands. При регистрации в игре Вы получите код, который сможете активировать после регистрации на pirat.ca и получить 1000 дублонов.

Ваш код:
fcd618d94adc1456bccbde5047c9cd0930e4ae4d
 
     

Ганнибал / Hannibal / Сезон: 3 / Серии: 13 из 13 (Майкл Раймер / Michael Rymer, ...) [2015 г., детектив, триллер, криминал, драма, ..., WEBDLRip] MVO (NewStudio) + Original (Eng) [Полный]

Ответить на тему
 
Автор
Сообщение

Пост 28-Сен-2013 11:00

[Q] 

kugesan

-Ганнибал / Hannibal «Как всё начиналось...»-- Производство: США
Жанр: детектив, триллер, криминал, драма, ...
Год выпуска: 2015 г.-Премьера (мир): 4 апреля 2013, ...
Премьера (РФ): 13 апреля 2013-Озвучка: Студия |NewStudio|
Перевод: Многоголосый закадровый, профессиональный
Оригинальный аудиопоток: английский-Автор перевода: Александра Цернант
Постер: Vortex-Режиссер: Майкл Раймер / Michael Rymer, Винченцо Натали / Vincenzo Natali, Дэвид Слэйд / David Slade, ...-В ролях: Мадс Миккельсен, Джиллиан Андерсон, Хью Дэнси, Каролин Давернас, Лара Жан Чоростецки, Аарон Абрамс, Лоуренс Фишборн, Эттьенн Парк, Скотт Томпсон, Торианна Ли, Демор Барнс ...-Описание:
Уилл Грэхэм — одаренный профайлер, который вместе с ФБР разыскивает серийного убийцу. Уникальный способ мышления Грэма дает ему удивительную способность глубоко проникаться чувствами другого человека, даже психопата. Он может понять, что ими движет. Но когда ум преследуемого убийцы оказывается слишком сложным, он прибегает к помощи доктора Лектера, одного из ведущих психиатрических умов в стране.-Сезон: 3
Серии: 13 из 13 серий
Продолжительность: ~ 00:43:00 мин серия-
Качество видео: WEBDLRip
Контейнер: AVI
Видео кодек: XviD
Аудио кодек: MP3
Видео: MPEG-4 Visual at 1496 Кбит/сек: 720 x 400 (1.800) at 23.976 fps: 0.22 Бит/Пиксели
Аудио Rus: MPEG Audio at 128 Кбит/сек, 2 канала, 48,0 КГц |NewStudio|
Аудио Eng: MPEG Audio at 128 Кбит/сек, 2 канала, 48,0 КГц |Original|
Cубтитры: отсутствуют
- -
  • Антипасто (Antipasto)
  • Весна (Primavera)
  • Второе блюдо (Secondo)
  • Аперитив (Apertivo)
  • Гарнир (Contorno)
  • Десерт (Dolce)
  • Дижестив (Digestivo)
  • Великий Красный Дракон (The Great Red Dragon)
  • ... И жена, облечённая солнцем (... And the Woman Clothed with the Sun)
  • ... И жена, облечённая в солнце (... And the Woman Clothed in Sun)
  • ...И чудовище из моря (…And the Beast from the Sea) - 13.08
  • Число Зверя 666 (The Number of the Beast Is 666)
  • Ярость агнца (The Wrath of the Lamb)
-
Общее
Полное имя : E:\_Сериалы\_Сериалы\Ганнибал\Hannibal.s03.WEBDLRip.NewStudio.TV\Hannibal.s03e01.WEBDLRip.NewStudio.TV.avi
Формат : AVI
Формат/Информация : Audio Video Interleave
Размер файла : 550 Мбайт
Продолжительность : 43 м.
Общий поток : 1766 Кбит/сек
Программа кодирования : VirtualDubMod 1.5.10.2 (build 2540/release)
Библиотека кодирования : VirtualDubMod build 2540/release
Видео
Идентификатор : 0
Формат : MPEG-4 Visual
Профиль формата : Advanced [email protected]
Параметр BVOP формата : Нет
Параметр QPel формата : Нет
Параметр GMC формата : Без точки перехода
Параметр матрицы формата : Default (H.263)
Идентификатор кодека : XVID
Идентификатор кодека/Подсказка : XviD
Продолжительность : 43 м.
Битрейт : 1496 Кбит/сек
Ширина : 720 пикселей
Высота : 400 пикселей
Соотношение сторон : 16:9
Частота кадров : 23,976 кадра/сек
Цветовое пространство : YUV
Субдискретизация насыщенности : 4:2:0
Битовая глубина : 8 бит
Тип развёртки : Прогрессивная
Метод сжатия : С потерями
Бит/(Пиксели*Кадры) : 0.217
Размер потока : 466 Мбайт (85%)
Библиотека кодирования : XviD 73
Аудио #1
Идентификатор : 1
Формат : MPEG Audio
Версия формата : Version 1
Профиль формата : Layer 3
Режим : Joint stereo
Расширение режима : MS Stereo
Идентификатор кодека : 55
Идентификатор кодека/Подсказка : MP3
Продолжительность : 43 м.
Вид битрейта : Постоянный
Битрейт : 128 Кбит/сек
Каналы : 2 канала
Частота : 48,0 КГц
Метод сжатия : С потерями
Размер потока : 39,9 Мбайт (7%)
Выравнивание : Соединение по промежуткам
Продолжительность промежутка : 42 мс. (1,00 видеокадр)
Время предзагрузки промежутка : 504 мс.
Аудио #2
Идентификатор : 2
Формат : MPEG Audio
Версия формата : Version 1
Профиль формата : Layer 3
Режим : Joint stereo
Расширение режима : MS Stereo
Идентификатор кодека : 55
Идентификатор кодека/Подсказка : MP3
Продолжительность : 43 м.
Вид битрейта : Постоянный
Битрейт : 128 Кбит/сек
Каналы : 2 канала
Частота : 48,0 КГц
Метод сжатия : С потерями
Размер потока : 39,9 Мбайт (7%)
Выравнивание : Соединение по промежуткам
Продолжительность промежутка : 42 мс. (1,00 видеокадр)
Время предзагрузки промежутка : 504 мс.
Библиотека кодирования : LAME3.90.3
-
-Скриншоты:
-
-
1. Открыть торрент
2. Снять галки с тех файлов торрента, которые мы не хотим закачивать. Оставляем только на нужных нам файлах (файле).
3. Нажать О.К.
В клиенте utorrent
Инструкция
1) Открыть торрент

2) Снять галки с тех файлов торрента, которые мы не хотим закачивать:
* либо вручную, снимая с каждого файла галку( скрин №1)
* либо, нажав кнопку "Снять метки (Select None)", сняв сразу со всех файлов(скрин №2)
№1

№2

Оставляем только на нужных нам файлах (файле).

3)Нажать О.К
Добавлена тринадцатая, заключительная, серия третьего сезона
Download / Скачать

Хотите скачать бесплатно? Зарегистрируйтесь на сайте (ссылка на регистрацию). Pirat.ca - самый быстрый торрент трекер в рунете!

Как скачивать  ·   Что такое торрент  ·   Рейтинг и ограничения



Последний раз редактировалось: kugesan (2015-09-03 12:05), всего редактировалось 41 раз(а)

dj421520

Пост 13-Июн-2015 21:53 (спустя 1 год 8 месяцев)

[Q] 

сяп ждём новых Лови бочку
[Профиль]  [ЛС] 

Alexlogin

Гроза морей

105

Пост 15-Июл-2015 18:46 (спустя 1 месяц 1 день)

[Q] 

Спасибо за оперативность
[Профиль]  [ЛС] 

kugesan ®

56710

Пост 15-Июл-2015 22:30 (спустя 3 часа)

[Q] 

Приятного просмотра!!!

_________________

В мире две бесконечности: вселенная и человеческая глупость - Альберт Эйнштен
«Можно вытащить человека из грязи, но нельзя вытащить грязь из человека»!
[Профиль]  [ЛС] 

kugesan ®

56710

Пост 03-Сен-2015 12:06 (спустя 1 месяц 18 дней)

[Q] 

Добавлена тринадцатая, заключительная, серия третьего сезона

_________________

В мире две бесконечности: вселенная и человеческая глупость - Альберт Эйнштен
«Можно вытащить человека из грязи, но нельзя вытащить грязь из человека»!
[Профиль]  [ЛС] 

Пост 03-Сен-2015 13:01 (спустя 55 минут)

Топик был перенесен из форума Сериалы в эфире в форум Зарубежные сериалы
Андря
 
Показать сообщения:    
Ответить на тему

Текущее время: Сегодня 12:48

Часовой пояс: GMT + 4



Вы не можете начинать темы
Вы не можете отвечать на сообщения
Вы не можете редактировать свои сообщения
Вы не можете удалять свои сообщения
Вы не можете голосовать в опросах
Вы не можете прикреплять файлы к сообщениям
Вы не можете скачивать файлы

▼ Вниз