ML
     
  Уважаемый Гость!
Вы можете поддержать проект и зарегистрироваться у наших партнеров - онлайн-стратегия MyLands. При регистрации в игре Вы получите код, который сможете активировать после регистрации на pirat.ca и получить 1000 дублонов.

Ваш код:
193c38d0130f05c24de871678ea3ac181461757d
 
     

Мастера секса / Masters of Sex / Сезон: 1 / Серии: 12 (Майкл Эптед / Michael Apted, Майкл Диннер/Michael Dinner) [2013 г., драма, HDTVRip] MVO (BaibaKo)

Ответить на тему
 
Автор
Сообщение

Пост 30-Сен-2013 19:37

[Q] 

kloctuk

-Мастера секса / Masters of Sex-- Производство: США
Жанр: драма
Год выпуска: 2013 г.
Продолжительность: 01:01:00
Мировая премьера: 01:01
Перевод: Профессиональный (многоголосый, закадровый) [BaibaKo]
Режиссер: Майкл Эптед / Michael Apted, Майкл Диннер/Michael Dinner-В ролях: Майкл Шин, Лиззи Каплан, Николас Д’Агосто, Кэйтлин Фицджералд, Тедди Сирс, Хелен Йорк, Кайла Мэдисон, Билл Лэйн, Коул Сэнд, Кристофер Клауси и др.-Описание: Сериал о пионерах науки о человеческой сексуальности, чьи исследования привели к сексуальной революции.-
Качество видео: HDTVRip
Контейнер: AVI
Видео кодек: XviD
Аудио кодек: MP3
Видео: 720x400 (1.80:1), 23.976 fps, XviD build 50 ~1526 kbps avg, 0.22 bit/pixel
Аудио: АНГЛ: 48 kHz, MPEG Layer 3, 2 ch, ~192.00 kbps avg
Аудио #2: РУС: 48 kHz, MPEG Layer 3, 2 ch, ~192.00 kbps avg
Cубтитры: отсутствуют
N:\фильмы\Masters.Of.Sex.s01.HDTVRip.XviD.Rus.Eng.BaibaKo.tv\Masters.Of.Sex.s01e01.HDTVRip.XviD.Rus.Eng.BaibaKo.tv.avi
General
Complete name : N:\фильмы\Masters.Of.Sex.s01.HDTVRip.XviD.Rus.Eng.BaibaKo.tv\Masters.Of.Sex.s01e01.HDTVRip.XviD.Rus.Eng.BaibaKo.tv.avi
Format : AVI
Format/Info : Audio Video Interleave
File size : 846 MiB
Duration : 1h 1mn
Overall bit rate : 1 925 Kbps
Writing application : VirtualDubMod 1.5.10.2 (build 2542/release)
Writing library : VirtualDubMod build 2542/release
Video
Format : MPEG-4 Visual
Format profile : Streaming [email protected]
Format settings, BVOP : Yes
Format settings, QPel : No
Format settings, GMC : No warppoints
Format settings, Matrix : Default
Codec ID : XVID
Codec ID/Hint : XviD
Duration : 1h 1mn
Bit rate : 1 527 Kbps
Width : 720 pixels
Height : 400 pixels
Display aspect ratio : 16/9
Frame rate : 23.976 fps
Resolution : 24 bits
Colorimetry : 4:2:0
Scan type : Progressive
Bits/(Pixel*Frame) : 0.221
Stream size : 671 MiB (79%)
Writing library : XviD 50
Audio
Format : MPEG Audio
Format version : Version 1
Format profile : Layer 3
Codec ID : 55
Codec ID/Hint : MP3
Duration : 1h 1mn
Bit rate mode : Constant
Bit rate : 192 Kbps
Minimum bit rate : 192 Kbps
Channel(s) : 2 channels
Sampling rate : 48.0 KHz
Resolution : 16 bits
Stream size : 84.3 MiB (10%)
Alignment : Aligned on interleaves
Interleave, duration : 42 ms (1.00 video frame)
Interleave, preload duration : 504 ms
Writing library : LAME3.99r
Encoding settings : CBR
Audio
Format : MPEG Audio
Format version : Version 1
Format profile : Layer 3
Codec ID : 55
Codec ID/Hint : MP3
Duration : 1h 1mn
Bit rate mode : Constant
Bit rate : 192 Kbps
Minimum bit rate : 192 Kbps
Channel(s) : 2 channels
Sampling rate : 48.0 KHz
Resolution : 16 bits
Stream size : 84.3 MiB (10%)
Alignment : Aligned on interleaves
Interleave, duration : 42 ms (1.00 video frame)
Interleave, preload duration : 504 ms
Writing library : LAME3.99r
Encoding settings : CBR
Добавлены серии №11 и 12. Сериал продлен на 2 сезон, который начнется осенью 2014 года.
Download / Скачать

Хотите скачать бесплатно? Зарегистрируйтесь на сайте (ссылка на регистрацию). Pirat.ca - самый быстрый торрент трекер в рунете!

Как скачивать  ·   Что такое торрент  ·   Рейтинг и ограничения



Последний раз редактировалось: kloctuk (2013-12-23 21:37), всего редактировалось 4 раз(а)

Пост 30-Сен-2013 20:57 (спустя 1 час 20 минут)

Топик был перенесен из форума Зарубежные сериалы (Трюм) в форум Сериалы в эфире
kugesan
 

Mitay

388

Пост 04-Дек-2013 19:06 (спустя 2 месяца 3 дня)

[Q] 

Жду продолжения !!

_________________
[Профиль]  [ЛС] 

kloctuk ®

3306

Пост 04-Дек-2013 19:20 (спустя 13 минут)

[Q] 

458195Жду продолжения !!
Как только, так сразу, но пока тихо...
З.Ы. Можно попинывать иногда, могу и забыть.
З.Ы.Ы. 9 и 10 серии вечером-с...

_________________
-выстрели еще разок. -зачем? - его душа еще танцует...
[Профиль]  [ЛС] 

veter510

Флибустьер

Пост 13-Дек-2013 18:57 (спустя 8 дней)

[Q] 

Пинать не за что, за сериал - мерси большое, будем ждать-с продолжения! )
[Профиль]  [ЛС] 

kloctuk ®

3306

Пост 23-Дек-2013 21:57 (спустя 10 дней)

[Q] 

Первый сезон ВСЕ. Ждем продолжения осенью 2014...

_________________
-выстрели еще разок. -зачем? - его душа еще танцует...
[Профиль]  [ЛС] 

Пост 23-Дек-2013 22:12 (спустя 14 минут)

Топик был перенесен из форума Сериалы в эфире в форум Зарубежные сериалы
kugesan
 
Показать сообщения:    
Ответить на тему

Текущее время: Сегодня 18:02

Часовой пояс: GMT + 4



Вы не можете начинать темы
Вы не можете отвечать на сообщения
Вы не можете редактировать свои сообщения
Вы не можете удалять свои сообщения
Вы не можете голосовать в опросах
Вы не можете прикреплять файлы к сообщениям
Вы не можете скачивать файлы

▼ Вниз