ML
     
  Уважаемый Гость!
Вы можете поддержать проект и зарегистрироваться у наших партнеров - онлайн-стратегия MyLands. При регистрации в игре Вы получите код, который сможете активировать после регистрации на pirat.ca и получить 1000 дублонов.

Ваш код:
11f49771fdf057c9d51610e4a0925c3b46ddb655
 
     

Родина / Homeland (Сезон 3, полный, 12 серий) (Майкл Куэста / Michael Cuesta ...) [2013г., Триллер, драма, детектив, WEB-DLRip] MVO (LostFilm)

Ответить на тему
 
Автор
Сообщение

Пост 02-Окт-2013 09:01

[Q] 

kugesan

Родина / Homeland
«The nation sees a hero. She sees a threat.»
- Русское название: Родина
Оригинальное название:Homeland
Страна: США
Год выпуска: 2013
Жанр: Триллер, драма, детектив-Озвучка: Студия LostFilm
Перевод: Многоголосый закадровый, профессиональный-Премьера (мир): 2 октября 2011
Премьера (РФ): 5 июня 2013-Режиссер: Майкл Куэста / Michael Cuesta, Лесли Линка Глаттер / Lesli Linka Glatter, Кларк Джонсон / Clark Johnson ...
Актеры: Клэр Дэйнс, Дэмиэн Льюис, Мэнди Пэтинкин, Морена Баккарин, Дэвид Хэрвуд, Джексон Паке, Морган Сэйлор. Диего Клаттенхофф, Руперт Френд, Дэвид Марсиано ...-Описание фильма:
В центре сюжета находятся сержант морской пехоты ВМФ США Николас Броди, вернувшийся домой после восьми лет отсутствия без вести в Ираке, и Кэрри Мэтисон, офицер ЦРУ, которая подозревает его в причастности к подготовке террористической атаки на Америку.-Сезон: 3
Серии: 12 из 12 серий
Продолжительность: ~ 00:58:00 мин серия-Качество видео: WEB-DLRip
Формат: AVI
Видеокодек: XviD
Аудиокодек: Mp3
Видео: MPEG-4 Visual at 1244 Кбит/сек, 720 x 400 (1.800) at 23.976 fps
Аудио: MPEG Audio at 192 Кбит/сек, 2 канала, 48,0 КГц
- -
  • Железный дровосек мёртв (Tin Man Is Down)
  • Ух... ох... ах... (Uh... Oh... Ah...)
  • Башня Давида (Tower of David)
  • Игра началась (Game On)
  • Приём с йогой (The Yoga Play)
  • Ещё в деле (Still Positive)
  • Стариканус (Gerontion)
  • Красная тачка (A Red Wheelbarrow)
  • Последний раз (One Last Time)
  • Спокойной ночи (Good Night)
  • Большой человек в Тегеране (Big Man in Tehran)
  • Звезда (The Star)
-
Код:
Общее
Полное имя                               : E:\_Сериалы\Родина\Homeland 3 - LostFilm\Homeland.S03E01.rus.LostFilm.TV.avi
Формат                                   : AVI
Формат/Информация                        : Audio Video Interleave
Размер файла                             : 604 Мбайт
Продолжительность                        : 58 м.
Общий поток                              : 1449 Кбит/сек
Программа кодирования                    : Nandub v1.0rc2
Библиотека кодирования                   : Nandub build 1853/release
Видео
Идентификатор                            : 0
Формат                                   : MPEG-4 Visual
Профиль формата                          : [email protected]
Параметр BVOP формата                    : Нет
Параметр QPel формата                    : Нет
Параметр GMC формата                     : Без точки перехода
Параметр матрицы формата                 : Default (H.263)
Идентификатор кодека                     : XVID
Идентификатор кодека/Подсказка           : XviD
Продолжительность                        : 58 м.
Битрейт                                  : 1244 Кбит/сек
Ширина                                   : 720 пикселей
Высота                                   : 400 пикселей
Соотношение сторон                       : 16:9
Частота кадров                           : 23,976 кадра/сек
Цветовое пространство                    : YUV
Субдискретизация насыщенности            : 4:2:0
Битовая глубина                          : 8 бит
Тип развёртки                            : Прогрессивная
Метод сжатия                             : С потерями
Бит/(Пиксели*Кадры)                      : 0.180
Размер потока                            : 518 Мбайт (86%)
Библиотека кодирования                   : XviD 1.2.1 (UTC 2008-12-04)
Аудио
Идентификатор                            : 1
Формат                                   : MPEG Audio
Версия формата                           : Version 1
Профиль формата                          : Layer 3
Режим                                    : Joint stereo
Расширение режима                        : MS Stereo
Идентификатор кодека                     : 55
Идентификатор кодека/Подсказка           : MP3
Продолжительность                        : 58 м.
Вид битрейта                             : Постоянный
Битрейт                                  : 192 Кбит/сек
Каналы                                   : 2 канала
Частота                                  : 48,0 КГц
Метод сжатия                             : С потерями
Размер потока                            : 80,0 Мбайт (13%)
Выравнивание                             : Соединение по промежуткам
Продолжительность промежутка             : 24  мс. (0,58 видеокадр)
Время предзагрузки промежутка            : 480  мс.
Библиотека кодирования                   : LAME3.97 (beta)
-
-Скриншоты:
-
-Добавлена двенадцатая, заключительная, серия третьего сезона
Download / Скачать

Хотите скачать бесплатно? Зарегистрируйтесь на сайте (ссылка на регистрацию). Pirat.ca - самый быстрый торрент трекер в рунете!

Как скачивать  ·   Что такое торрент  ·   Рейтинг и ограничения



Последний раз редактировалось: kugesan (2013-12-17 23:33), всего редактировалось 10 раз(а)

kugesan ®

56710

Пост 08-Окт-2013 21:21 (спустя 6 дней)

[Q] 

Добавлена вторая серия

_________________

В мире две бесконечности: вселенная и человеческая глупость - Альберт Эйнштен
«Можно вытащить человека из грязи, но нельзя вытащить грязь из человека»!
[Профиль]  [ЛС] 

egor126

Гроза морей

Пост 08-Окт-2013 22:26 (спустя 1 час 5 минут)

[Q] 

Поддержу. Спасибо.
[Профиль]  [ЛС] 

kugesan ®

56710

Пост 08-Окт-2013 22:36 (спустя 9 минут)

[Q] 

egor126, aa az

_________________

В мире две бесконечности: вселенная и человеческая глупость - Альберт Эйнштен
«Можно вытащить человека из грязи, но нельзя вытащить грязь из человека»!
[Профиль]  [ЛС] 

viktor41

Шкипер

Пост 15-Окт-2013 19:25 (спустя 6 дней)

[Q] 

Спасибо . cy ay
[Профиль]  [ЛС] 

kugesan ®

56710

Пост 15-Окт-2013 19:32 (спустя 6 минут)

[Q] 

Добавлена третья серия

_________________

В мире две бесконечности: вселенная и человеческая глупость - Альберт Эйнштен
«Можно вытащить человека из грязи, но нельзя вытащить грязь из человека»!
[Профиль]  [ЛС] 

vovanig

39142

Пост 15-Окт-2013 19:38 (спустя 6 минут)

[Q] 

Смотрю! Спасибо!!! Раздающему респект!
[Профиль]  [ЛС] 

kugesan ®

56710

Пост 15-Окт-2013 20:01 (спустя 23 минуты)

[Q] 

vovanig, Пожалуйста. Приятного просмотра!

_________________

В мире две бесконечности: вселенная и человеческая глупость - Альберт Эйнштен
«Можно вытащить человека из грязи, но нельзя вытащить грязь из человека»!
[Профиль]  [ЛС] 

kugesan ®

56710

Пост 17-Дек-2013 23:34 (спустя 2 месяца 2 дня)

[Q] 

Добавлена двенадцатая, заключительная, серия третьего сезона

_________________

В мире две бесконечности: вселенная и человеческая глупость - Альберт Эйнштен
«Можно вытащить человека из грязи, но нельзя вытащить грязь из человека»!
[Профиль]  [ЛС] 

azzaulter

Шкипер

Пост 12-Янв-2014 14:13 (спустя 25 дней)

[Q] 

Спасибо! Всем качать!!! Автору респект!!!
[Профиль]  [ЛС] 

Mitriadis

Лоцман

Пост 29-Авг-2014 00:21 (спустя 7 месяцев 16 дней)

[Q] 

Хватаю и сижу на раздаче.
Автору спасибо, уважуха и слава!
[Профиль]  [ЛС] 

tumparov

Морской Волк

Пост 09-Окт-2014 14:53 (спустя 1 месяц 11 дней)

[Q] 

Посижу тож на раздаче, провайдер мой сцуко, лост заблокировал
[Профиль]  [ЛС] 
Показать сообщения:    
Ответить на тему

Текущее время: Сегодня 03:08

Часовой пояс: GMT + 4



Вы не можете начинать темы
Вы не можете отвечать на сообщения
Вы не можете редактировать свои сообщения
Вы не можете удалять свои сообщения
Вы не можете голосовать в опросах
Вы не можете прикреплять файлы к сообщениям
Вы не можете скачивать файлы

▼ Вниз