ML
     
  Уважаемый Гость!
Вы можете поддержать проект и зарегистрироваться у наших партнеров - онлайн-стратегия MyLands. При регистрации в игре Вы получите код, который сможете активировать после регистрации на pirat.ca и получить 1000 дублонов.

Ваш код:
6f9ab67d502902cc72a06c406977ddb589b7f39d
 
     

Подпольная империя / Boardwalk Empire (Сезон 4, полный, 12 серий) [Amedia] (Тимоти Ван Паттен / Timothy Van Patten ...) [2010-2013 гг.] (Драма, криминал) [HDTVRip] (MVO)

Ответить на тему
 
Автор
Сообщение

Пост 02-Окт-2013 12:34

[Q] 

kugesan

Подпольная империя / Boardwalk Empire
«Atlantic City, 1920.
When alcohol was outlawed, outlaws became kings.»
- Русское название: Подпольная империя
Оригинальное название: Boardwalk Empire
Страна: США
Год выпуска: 2010-2013
Жанр: Драма, криминал-Релиз:
Озвучка: Студия Amedia
Перевод: Многоголосый закадровый, профессиональный
Работа со звуком: BS666, ЛП, 13napas-Режиссер: Тимоти Ван Паттен / Timothy Van Patten, Аллен Култер / Allen Coulter , Джереми Подесва / Jeremy Podeswa
Актеры: Стив Бушеми, Майкл Питт, Келли Макдоналд, Майкл Шеннон, Ши Уигхэм, Алекса Палладино, Майкл Стулбарг, Стивен Грэм, Винсент Пьяцца, Джек Хьюстон ...-Описание фильма:
1920 год. Через несколько часов Атлантик-Сити — столица развлечений и порока, как и вся Америка, вступит в эпоху «Сухого закона». Енох «Наки» Томпсон, днем — городской казначей, а ночью — хитроумный гангстер со связями на самом «верху», решает воспользоваться ситуацией и получить баснословные прибыли на подпольной торговле алкоголем. Однако не он один жаждет обогатиться на новом промысле…-Дата мировой премьеры: 19 сентября 2010
Дата Российской премьеры: 8 ноября 2010-Сезон: 4
Серии: 12 из 12 серий
Продолжительность: ~ 01:00:00 серия-Качество видео: HDTVRip
Формат: AVI
Видеокодек: XviD
Аудиокодек: AC-3
Видео: MPEG-4 Visual at 2086 Кбит/сек, 720 x 400 (1.800) at 23.976 fps, 0.302 Бит/Пиксели
Аудио Rus: AC-3 at 192 Кбит/сек, 2 канала, 48,0 КГц - многоголосый закадровый
Аудио Eng: AC-3 at 192 Кбит/сек, 2 канала, 48,0 КГц - оригинал
- -Сериал "Подпольная империя / Boardwalk Empire" на треке Pirat.ca-
  • Нью-Йорк Сауэр (New York Sour)
  • Уступка (Resignation)
  • Акры алмазов (Acres of Diamonds)
  • Все включено ( All-In)
  • Лесной царь (Erlkönig)
  • Северная звезда (The North Star)
  • Уильям Уилсон (William Wilson)
  • Старый корабль Сиона (The Old Ship of Zion)
  • Брак и охота (Marriage and Hunting)
  • Копье белой лошади (White Horse Pike)
  • Гавр-де-Грейс (Havre De Grace)
  • Прощальный блюз (Farewell Daddy Blues)
-
Код:
Общее
Полное имя                               : E:\_Сериалы\Подпольная империя\Boardwalk Empire 4 - CasStudio\Boardwalk.Empire.s04e01.rus.eng.CasStudio.TV.avi
Формат                                   : AVI
Формат/Информация                        : Audio Video Interleave
Размер файла                             : 1,06 Гбайт
Продолжительность                        : 1 ч. 0 м.
Общий поток                              : 2485 Кбит/сек
Программа кодирования                    : VirtualDubMod 1.5.10.2 (build 2540/release)
Библиотека кодирования                   : VirtualDubMod build 2540/release
Видео
Идентификатор                            : 0
Формат                                   : MPEG-4 Visual
Профиль формата                          : Advanced [email protected]
Параметр BVOP формата                    : 1
Параметр QPel формата                    : Нет
Параметр GMC формата                     : Без точки перехода
Параметр матрицы формата                 : Default (MPEG)
Идентификатор кодека                     : XVID
Идентификатор кодека/Подсказка           : XviD
Продолжительность                        : 1 ч. 0 м.
Битрейт                                  : 2086 Кбит/сек
Ширина                                   : 720 пикселей
Высота                                   : 400 пикселей
Соотношение сторон                       : 16:9
Частота кадров                           : 23,976 кадра/сек
Цветовое пространство                    : YUV
Субдискретизация насыщенности            : 4:2:0
Битовая глубина                          : 8 бит
Тип развёртки                            : Прогрессивная
Метод сжатия                             : С потерями
Бит/(Пиксели*Кадры)                      : 0.302
Размер потока                            : 908 Мбайт (84%)
Библиотека кодирования                   : XviD 65
Аудио #1
Идентификатор                            : 1
Формат                                   : AC-3
Формат/Информация                        : Audio Coding 3
Расширение режима                        : CM (complete main)
Параметр Endianness формата              : Big
Идентификатор кодека                     : 2000
Продолжительность                        : 1 ч. 0 м.
Вид битрейта                             : Постоянный
Битрейт                                  : 192 Кбит/сек
Каналы                                   : 2 канала
Расположение каналов                     : Front: L R
Частота                                  : 48,0 КГц
Битовая глубина                          : 16 бит
Метод сжатия                             : С потерями
Размер потока                            : 83,6 Мбайт (8%)
Выравнивание                             : Разделение по промежуткам
Продолжительность промежутка             : 42  мс. (1,00 видеокадр)
Время предзагрузки промежутка            : 500  мс.
Аудио #2
Идентификатор                            : 2
Формат                                   : AC-3
Формат/Информация                        : Audio Coding 3
Расширение режима                        : CM (complete main)
Параметр Endianness формата              : Big
Идентификатор кодека                     : 2000
Продолжительность                        : 1 ч. 0 м.
Вид битрейта                             : Постоянный
Битрейт                                  : 192 Кбит/сек
Каналы                                   : 2 канала
Расположение каналов                     : Front: L R
Частота                                  : 48,0 КГц
Битовая глубина                          : 16 бит
Метод сжатия                             : С потерями
Размер потока                            : 83,6 Мбайт (8%)
Выравнивание                             : Разделение по промежуткам
Продолжительность промежутка             : 42  мс. (1,00 видеокадр)
Время предзагрузки промежутка            : 500  мс.
-
-Скриншоты:
-
-Добавлена двенадцатая, заключительная, серия четвертого сезона
Download / Скачать

Хотите скачать бесплатно? Зарегистрируйтесь на сайте (ссылка на регистрацию). Pirat.ca - самый быстрый торрент трекер в рунете!

Как скачивать  ·   Что такое торрент  ·   Рейтинг и ограничения



Последний раз редактировалось: kugesan (2013-12-04 11:32), всего редактировалось 8 раз(а)

kugesan ®

56639

Пост 21-Ноя-2013 10:14 (спустя 1 месяц 18 дней)

[Q] 

Добавлена одиннадцатая серия

_________________

В мире две бесконечности: вселенная и человеческая глупость - Альберт Эйнштен
«Можно вытащить человека из грязи, но нельзя вытащить грязь из человека»!
[Профиль]  [ЛС] 

salozio

Лоцман

Пост 21-Ноя-2013 12:17 (спустя 2 часа 3 минуты)

[Q] 

скорости нет:(
[Профиль]  [ЛС] 

kugesan ®

56639

Пост 21-Ноя-2013 13:13 (спустя 55 минут)

[Q] 

salozio, Раздача идет круглосуточно, немного терпения и скачаете)))

_________________

В мире две бесконечности: вселенная и человеческая глупость - Альберт Эйнштен
«Можно вытащить человека из грязи, но нельзя вытащить грязь из человека»!
[Профиль]  [ЛС] 

fleshk1n

Морской Волк

Пост 29-Ноя-2013 20:11 (спустя 8 дней)

[Q] 

12 серия когда будет?
[Профиль]  [ЛС] 

kugesan ®

56639

Пост 30-Ноя-2013 13:24 (спустя 17 часов)

[Q] 

Добавлена двенадцатая, заключительная, серия четвертого сезона

_________________

В мире две бесконечности: вселенная и человеческая глупость - Альберт Эйнштен
«Можно вытащить человека из грязи, но нельзя вытащить грязь из человека»!
[Профиль]  [ЛС] 

kugesan ®

56639

Пост 04-Дек-2013 11:41 (спустя 3 дня)

[Q] 

Последняя серия перезалита. Приношу извинения за неудобство!

_________________

В мире две бесконечности: вселенная и человеческая глупость - Альберт Эйнштен
«Можно вытащить человека из грязи, но нельзя вытащить грязь из человека»!
[Профиль]  [ЛС] 

Пират

Шкипер

Пост 10-Янв-2014 19:36 (спустя 1 месяц 6 дней)

[Q] 

еле досмотрели 4 сезон!растянули нудню сделали какую то!
[Профиль]  [ЛС] 
Показать сообщения:    
Ответить на тему

Текущее время: Сегодня 16:32

Часовой пояс: GMT + 4



Вы не можете начинать темы
Вы не можете отвечать на сообщения
Вы не можете редактировать свои сообщения
Вы не можете удалять свои сообщения
Вы не можете голосовать в опросах
Вы не можете прикреплять файлы к сообщениям
Вы не можете скачивать файлы

▼ Вниз