ML
     
  Уважаемый Гость!
Вы можете поддержать проект и зарегистрироваться у наших партнеров - онлайн-стратегия MyLands. При регистрации в игре Вы получите код, который сможете активировать после регистрации на pirat.ca и получить 1000 дублонов.

Ваш код:
73640f24f8a0f579e128ea7346fd2db2b1009143
 
     

Дневники Вампира / The Vampire Diaries / Сезон: 5 / Серии: 22 из 22 (Маркос Сига / Marcos Siega ...) [2013г., Ужасы, Фэнтези, Триллер, Драма, Мелодрама, Детектив, WEB-DLRip] MVO (Кубик в Кубе)

Ответить на тему
 
Автор
Сообщение

Пост 06-Окт-2013 06:16

[Q] 

artem37

Шкипер

-Дневники Вампира / The Vampire Diaries-- Производство: США
Жанр: Драма, мелодрама, ужасы
Год выпуска: 2013 г.
Продолжительность: 00:42:00
Перевод: Профессиональный (многоголосый, закадровый) [Кубик в Кубе]
Режиссер: Маркос Сига / Marcos Siega, Лиз Фридлендер / Liz Friedlander, Лэнс Андерсон / Lance Anderson, Кевин Брэй / Kevin Bray, Джесси Уарн / Jesse Warn, Джеффри Дж. Хант / Jeffrey G. Hunt, Джон Дал / John-В ролях: Нина Добрев, Пол Уэсли, Йен Сомерхалдер, Стивен Р. МакКуин, Катерина Грэхэм, Кэндис Аккола, Зак Рериг, Майкл Тревино, Джозеф Морган, Сара Каннинг, Кайла Юэлл, Дэвид Андерс, Клер Холт, Тейлор Кинни, Келли Ху, Роберт Пралго, Брайтон МакКлур, Михаэлла МакМанус, Джэсмин Гай, Рэнди Дж. Гудвин, Миа Киршнер, Лорен Коэн, Крис Дж. Джонсон, Себастьян Роше, Торри ДеВито, Бьянка Лоусон, Джек Коулмэн, Доун Оливери, Стерлинг-Описание: После долгого заточения в склепе, Сайлас наконец-то выбрался на волю и сможет показать свое истинное лицо. Все случившиеся в последнее время обстоятельства, заставляют героев покинуть город и податься по своему пути, но вот смогут ли они так легко отделаться от замыслов судьбы. На удивление многих зрителей, одна из любимых героинь Кетрин предстанет перед нами в новом обличии, ей придется отвыкнуть от мысли, что она пятисотлетний вампир - теперь она просто смертный человек. Будут ли продолжаться такие жаркие отношения между Деймоном и Еленой в новом сезоне, какие новые шокирующие тайны хранит семья Сальваторе-об этом и многом другом в новом 5 сезоне.
Качество видео: HDTVRip
Контейнер: AVI
Видео кодек: XviD
Аудио кодек: MP3
Видео: 624x352 (1.77:1), 23.976 fps, XviD MPEG-4 ~1235 kbps avg, 0.23 bit/pixel
Аудио: 48 kHz, MPEG Layer 3, 2 ch, ~224.00 kbps avg
Cубтитры: отсутствуют-
Общее
Полное имя : Vampire.Diaries.S05E01[Kubik_v_Kube].avi
Формат : AVI
Формат/Информация : Audio Video Interleave
Размер файла : 486 Мбайт
Продолжительность : 42 м.
Общий поток : 1598 Кбит/сек
Программа кодирования : VirtualDubMod 1.5.10.2 (build 2540/release)
Библиотека кодирования : VirtualDubMod build 2540/release
Видео
Идентификатор : 0
Формат : MPEG-4 Visual
Профиль формата : Advanced [email protected]
Параметр BVOP формата : 1
Параметр QPel формата : Нет
Параметр GMC формата : Без точки перехода
Параметр матрицы формата : Default (H.263)
Идентификатор кодека : XVID
Идентификатор кодека/Подсказка : XviD
Продолжительность : 42 м.
Битрейт : 1200 Кбит/сек
Ширина : 624 пикселя
Высота : 352 пикселя
Соотношение сторон : 16:9
Частота кадров : 23,976 кадра/сек
Цветовое пространство : YUV
Субдискретизация насыщенности : 4:2:0
Битовая глубина : 8 бит
Тип развёртки : Прогрессивная
Метод сжатия : С потерями
Бит/(Пиксели*Кадры) : 0.228
Размер потока : 365 Мбайт (75%)
Библиотека кодирования : XviD 1.2.1 (UTC 2008-12-04)
Аудио
Идентификатор : 1
Формат : MPEG Audio
Версия формата : Version 1
Профиль формата : Layer 3
Идентификатор кодека : 55
Идентификатор кодека/Подсказка : MP3
Продолжительность : 42 м.
Вид битрейта : Постоянный
Битрейт : 192 Кбит/сек
Каналы : 2 канала
Частота : 48,0 КГц
Метод сжатия : С потерями
Размер потока : 58,4 Мбайт (12%)
Выравнивание : Соединение по промежуткам
Продолжительность промежутка : 42 мс. (1,00 видеокадр)
Время предзагрузки промежутка : 504 мс.
ДОБАВЛЕНА 22 ЗАКЛЮЧИТЕЛЬНАЯ СЕРИЯ 5 СЕЗОНА, ШЕСТОЙ СЕЗОН БУДЕТ ОСЕНЬЮ 2014!
Download / Скачать

Хотите скачать бесплатно? Зарегистрируйтесь на сайте (ссылка на регистрацию). Pirat.ca - самый быстрый торрент трекер в рунете!

Как скачивать  ·   Что такое торрент  ·   Рейтинг и ограничения



Последний раз редактировалось: artem37 (2014-05-17 08:06), всего редактировалось 38 раз(а)

egorka st

Корсар

Пост 06-Окт-2013 10:49 (спустя 4 часа)

[Q] 

artem37,
Спасибо Вам от моей дочурки, она все сезоны просмотрела, ждала продолжения.

_________________
[Профиль]  [ЛС] 

artem37 ®

Шкипер

115

Пост 06-Окт-2013 23:56 (спустя 13 часов)

[Q] 

egorka st,
Не за что ! aa

_________________
[Профиль]  [ЛС] 

artem37 ®

Шкипер

115

Пост 12-Окт-2013 09:32 (спустя 5 дней)

[Q] 

Добавил 2 серию 5 сезона az

_________________
[Профиль]  [ЛС] 

egorka st

Корсар

Пост 12-Окт-2013 10:01 (спустя 28 минут)

[Q] 

artem37,
Спасибо за вторую серию. Автору респект!!!
Укажите, пожалуйста, что надо создать папку "Дневники" и закинуть туда первую серию, иначе начинает качать всё по-новой.(((

_________________
[Профиль]  [ЛС] 

artem37 ®

Шкипер

115

Пост 12-Окт-2013 10:20 (спустя 19 минут)

[Q] 

egorka st,
ОК. СПАСИБО ЗА ПОДСКАЗКУ ! az aa

_________________
[Профиль]  [ЛС] 

Кристиночка

Лоцман

Пост 12-Окт-2013 19:06 (спустя 8 часов)

[Q] 

когда 3 серия подскажите? очень была удивлена что вышел уже 5 сезон.время быстро пролетело
[Профиль]  [ЛС] 

egorka st

Корсар

Пост 12-Окт-2013 21:08 (спустя 2 часа 2 минуты)

[Q] 

Кристиночка,
Здравствуйте коллега. Расписание выхода новых серий, смотрите в шапке раздачи, под спойлером. ab

_________________
[Профиль]  [ЛС] 

Кристиночка

Лоцман

Пост 13-Окт-2013 00:49 (спустя 3 часа)

[Q] 

egorka st, Спасиббо) Просто думала что , так же по субботам серии будут)
[Профиль]  [ЛС] 

artem37 ®

Шкипер

115

Пост 13-Окт-2013 14:01 (спустя 13 часов)

[Q] 

Кристиночка,
Здравствуйте! Так то они по пятницам выходят но без перевода .... с переводом появляются в субботу..

_________________
[Профиль]  [ЛС] 

Кристиночка

Лоцман

Пост 19-Окт-2013 00:50 (спустя 5 дней)

[Q] 

artem37, эх..буду ждать) Спасибо
[Профиль]  [ЛС] 

ubadm

Морской Волк

Пост 05-Дек-2013 12:46 (спустя 1 месяц 17 дней)

[Q] 

Супер! Спасибо!!! Наконец то 5 сезон
[Профиль]  [ЛС] 

@SMertb@

Юнга

Пост 25-Фев-2014 23:51 (спустя 2 месяца 20 дней)

[Q] 

когда 14 тут ждать?
[Профиль]  [ЛС] 

artem37 ®

Шкипер

115

Пост 28-Фев-2014 14:10 (спустя 2 дня 14 часов)

[Q] 

498878когда 14 тут ждать?
завтра

_________________
[Профиль]  [ЛС] 

Electric892

Боцман

Пост 28-Фев-2014 18:11 (спустя 4 часа)

[Q] 

А возрастные ограничения какие у этого сериала?
[Профиль]  [ЛС] 

Region-89

Гроза морей

550

Пост 13-Мар-2014 16:26 (спустя 12 дней)

[Q] 

500183А возрастные ограничения какие у этого сериала?

_________________
[Профиль]  [ЛС] 
Показать сообщения:    
Ответить на тему

Текущее время: Сегодня 22:36

Часовой пояс: GMT + 4



Вы не можете начинать темы
Вы не можете отвечать на сообщения
Вы не можете редактировать свои сообщения
Вы не можете удалять свои сообщения
Вы не можете голосовать в опросах
Вы не можете прикреплять файлы к сообщениям
Вы не можете скачивать файлы

▼ Вниз