ML
     
  Уважаемый Гость!
Вы можете поддержать проект и зарегистрироваться у наших партнеров - онлайн-стратегия MyLands. При регистрации в игре Вы получите код, который сможете активировать после регистрации на pirat.ca и получить 1000 дублонов.

Ваш код:
6f9ab67d502902cc72a06c406977ddb589b7f39d
 
     

Ответный удар / Strike Back / Теневая война (Сезон: 4 / Серии: 1-10 из 10) (Дэниэл Персивал / Daniel Percival, Пол Вильшурст / Paul Wilmshurst, Билл Иглз / Bill Eagles) [2010-2013 гг., Боевик, триллер, драма, BDRip, 720p] MVO [Sub Eng]

Ответить на тему
 
Автор
Сообщение

Пост 09-Окт-2013 17:13

[Q] 

UcrusPazzo

Ответный удар / Strike Back / Теневая война
«Brutal. Ruthless. Deadly. And they're the good guys.»
-Производство: Великобритания, Left Bank Pictures, Ingenious Broadcasting, Double D Productions
Жанр: Боевик, триллер, драма
Год выпуска: 2010-2013 гг.
Продолжительность: 10 серий по ~ 00:44:00, общее время - 07:59:23
Мировая премьера: 5 мая 2010
Дата выхода DVD: 17 марта 2011, «Флагман-Трейд»
Перевод: Профессиональный (многоголосый, закадровый)-Режиссер: Дэниэл Персивал / Daniel Percival, Пол Вильшурст / Paul Wilmshurst, Билл Иглз / Bill Eagles-В ролях: Филип Уинчестер, Салливан Степлтон, Мишель Лукес, Рашан Стоун, Рона Митра, Лайам Гэрриган, Аманда Милинг, Чарльз Дэнс, Винсент Риган, Шэйн Тейлор, Ричард Армитедж, Джими Мистри, Натали Бекер, Марчел Юреш, Александра Моэн, Эндрю Линкольн, Джоди Мэй, Шелли Конн, Ева Бертистл, Стефани Вогт, Колин Сэлмон, Лайн Рени, Лора Гринвуд, Милона Джексон, Тереза Србова, Оливия Грант, Робсон Грин, Никола Стивенсон, Зубин Варла, Натали Авелон, Крэйг Хоукс, Саша Бехар, Ференц Лендьела-Описание: 4-й сезон британского сериала "Ответный удар" ("Теневая война") продолжает повествовать о работе оперативников элитного подразделения британской разведки, участвующих в опасных боевых операциях по пресечению террористических актов в различных частях мира. В новых сериях идет рассказ о преследовании неуловимого террориста Aль-Захири и его партнеров по картелю в различных районах мира, в том числе в Колумбии, Бейруте и Европе.-Качество видео: BDRip
Контейнер: MKV
Стандарт разрешения: 720p
Видео кодек: H.264
Аудио кодек: AC3
Видео: 4712 Кбит/сек; 1280*720 (16:9); в 23,976 кадров/сек; AVC ([email protected])(CABAC / 5 Ref Frames)
Аудио: Russian; 384 Кбит/сек; 48,0 КГц; 16 бит; 6 каналов; АС-3 (BaibaKo)
Аудио #2: English; 384 Кбит/сек; 48,0 КГц; 16 бит; 6 каналов; АС-3
Cубтитры: нет
Эмми, 2012 год (Лучшие вступительные титры)
Общее
Уникальный идентификатор : 202331595548332364968180641059324286180 (0x9837A5D9E7B50358BEED274DC67FD4E4)
Формат : Matroska
Версия формата : Version 4 / Version 2
Размер файла : 1,90 Гбайт
Продолжительность : 48 м.
Общий поток : 5591 Кбит/сек
Название фильма : BaibaKo.tv presents - Ответный удар 4x01
Дата кодирования : UTC 2013-08-16 22:56:51
Программа кодирования : mkvmerge v6.3.0 ('You can't stop me!') built on Jun 28 2013 20:09:41
Библиотека кодирования : libebml v1.3.0 + libmatroska v1.4.0
Видео
Идентификатор : 1
Формат : AVC
Формат/Информация : Advanced Video Codec
Профиль формата : [email protected]
Параметр CABAC формата : Да
Параметр ReFrames формата : 5 кадров
Идентификатор кодека : V_MPEG4/ISO/AVC
Продолжительность : 48 м.
Битрейт : 4712 Кбит/сек
Ширина : 1280 пикселей
Высота : 720 пикселей
Соотношение сторон : 16:9
Режим частоты кадров : Постоянный
Частота кадров : 23,976 кадра/сек
Цветовое пространство : YUV
Субдискретизация насыщенности : 4:2:0
Битовая глубина : 8 бит
Тип развёртки : Прогрессивная
Бит/(Пиксели*Кадры) : 0.213
Размер потока : 1,60 Гбайт (84%)
Библиотека кодирования : x264 core 135 r2345 f0c1c53
Настройки программы : cabac=1 / ref=5 / deblock=1:0:0 / analyse=0x3:0x113 / me=umh / subme=8 / psy=1 / psy_rd=1.00:0.00 / mixed_ref=1 / me_range=16 / chroma_me=1 / trellis=1 / 8x8dct=1 / cqm=0 / deadzone=21,11 / fast_pskip=1 / chroma_qp_offset=-2 / threads=18 / lookahead_threads=3 / sliced_threads=0 / nr=0 / decimate=1 / interlaced=0 / bluray_compat=0 / constrained_intra=0 / bframes=3 / b_pyramid=2 / b_adapt=2 / b_bias=0 / direct=3 / weightb=1 / open_gop=0 / weightp=2 / keyint=250 / keyint_min=23 / scenecut=40 / intra_refresh=0 / rc_lookahead=50 / rc=crf / mbtree=1 / crf=18.0 / qcomp=0.60 / qpmin=0 / qpmax=69 / qpstep=4 / ip_ratio=1.40 / aq=1:1.00
Язык : English
Default : Да
Forced : Нет
Коэффициенты матрицы : BT.709
Аудио #1
Идентификатор : 2
Формат : AC-3
Формат/Информация : Audio Coding 3
Расширение режима : CM (complete main)
Параметр Endianness формата : Big
Идентификатор кодека : A_AC3
Продолжительность : 48 м.
Вид битрейта : Постоянный
Битрейт : 384 Кбит/сек
Каналы : 6 каналов
Расположение каналов : Front: L C R, Side: L R, LFE
Частота : 48,0 КГц
Битовая глубина : 16 бит
Метод сжатия : С потерями
Размер потока : 133 Мбайт (7%)
Заголовок : Rus BaibaKo.tv DD5.1
Язык : Russian
Default : Да
Forced : Нет
Аудио #2
Идентификатор : 3
Формат : AC-3
Формат/Информация : Audio Coding 3
Расширение режима : CM (complete main)
Параметр Endianness формата : Big
Идентификатор кодека : A_AC3
Продолжительность : 48 м.
Вид битрейта : Постоянный
Битрейт : 384 Кбит/сек
Каналы : 2 канала
Расположение каналов : Front: L R
Частота : 48,0 КГц
Битовая глубина : 16 бит
Метод сжатия : С потерями
Размер потока : 133 Мбайт (7%)
Заголовок : Eng DD5.1
Язык : English
Default : Нет
Forced : Нет
Download / Скачать

Хотите скачать бесплатно? Зарегистрируйтесь на сайте (ссылка на регистрацию). Pirat.ca - самый быстрый торрент трекер в рунете!

Как скачивать  ·   Что такое торрент  ·   Рейтинг и ограничения



Последний раз редактировалось: UcrusPazzo (2013-11-09 22:50), всего редактировалось 5 раз(а)

UcrusPazzo ®

7670

Пост 09-Окт-2013 17:15 (спустя 1 минута)

[Q] 

Ответный удар / Strike Back / Теневая война (Сезон: 1-3 / Серии: 1-22) (Дэниэл Персивал / Daniel Percival, Пол Вильшурст / Paul Wilmshurst, Билл Иглз / Bill Eagles) [2010-2013 гг., Боевик, триллер, драма, BDRip, 720p] MVO [Sub Eng]

_________________
[Профиль]  [ЛС] 

Пост 09-Окт-2013 20:43 (спустя 3 часа)

Топик был перенесен из форума Зарубежные сериалы (Трюм) в форум Сериалы в эфире
kugesan
 

UcrusPazzo ®

7670

Пост 15-Окт-2013 20:37 (спустя 6 дней)

[Q] 

Добавлены 8 и 9 серия перевод - Amedia

_________________
[Профиль]  [ЛС] 

UcrusPazzo ®

7670

Пост 23-Окт-2013 08:55 (спустя 7 дней)

[Q] 

Добавлена заключительная 10 серия перевод - Amedia

_________________
[Профиль]  [ЛС] 

Vulkankor

Корсар

Пост 23-Окт-2013 12:18 (спустя 3 часа)

[Q] 

Спасибо! Ждал с нетерпением ! bp
[Профиль]  [ЛС] 

demal

Штурман

Пост 23-Окт-2013 19:44 (спустя 7 часов)

[Q] 

спасибо, хороший сериал.
[Профиль]  [ЛС] 

UcrusPazzo ®

7670

Пост 09-Ноя-2013 22:46 (спустя 17 дней)

[Q] 

Серии 8, 9 и 10 перевод "Amedia" заменены на перевод "BaibaKo"

_________________
[Профиль]  [ЛС] 
Показать сообщения:    
Ответить на тему

Текущее время: Сегодня 16:28

Часовой пояс: GMT + 4



Вы не можете начинать темы
Вы не можете отвечать на сообщения
Вы не можете редактировать свои сообщения
Вы не можете удалять свои сообщения
Вы не можете голосовать в опросах
Вы не можете прикреплять файлы к сообщениям
Вы не можете скачивать файлы

▼ Вниз