ML
     
  Уважаемый Гость!
Вы можете поддержать проект и зарегистрироваться у наших партнеров - онлайн-стратегия MyLands. При регистрации в игре Вы получите код, который сможете активировать после регистрации на pirat.ca и получить 1000 дублонов.

Ваш код:
4fbd9898b6f10799a3e8edf60f31febd2bc15453
 
     

Ганнибал / Hannibal / Сезон: 3 / Серии: 13 из 13 (Майкл Раймер / Michael Rymer, ...) [2015 г., детектив, триллер, криминал, драма, ..., WEBDLRip] MVO (AlexFilm) + Original (Eng) [Полный]

Ответить на тему
 
Автор
Сообщение

Пост 11-Окт-2013 22:48

[Q] 

kugesan

-Ганнибал / Hannibal «Как всё начиналось...»-- Производство: США
Жанр: детектив, триллер, криминал, драма, ...
Год выпуска: 2015 г.-Премьера (мир): 4 апреля 2013, ...
Премьера (РФ): 13 апреля 2013-Озвучка: Студия
Перевод: Многоголосый закадровый, профессиональный
Оригинальный аудиопоток: английский-Перевод: Константин Кривоногов
Озвучка: Татьяна Манетина, Пётр Иващенко (Гланц), Михаил Суслов, Константин Погодаев, Владимир Курдов
Монтаж и сведение звука: Михаил Шорыгин
Обложка: tvblog-Режиссер: Майкл Раймер / Michael Rymer, Винченцо Натали / Vincenzo Natali, Дэвид Слэйд / David Slade, ...-В ролях: Мадс Миккельсен, Джиллиан Андерсон, Хью Дэнси, Каролин Давернас, Лара Жан Чоростецки, Аарон Абрамс, Лоуренс Фишборн, Эттьенн Парк, Скотт Томпсон, Торианна Ли, Демор Барнс ...-Описание:
Уилл Грэм — одаренный профайлер, который вместе с ФБР разыскивает серийного убийцу. Уникальный способ мышления Грэма дает ему удивительную способность глубоко проникаться чувствами другого человека, даже психопата. Он может понять, что ими движет. Но когда ум преследуемого убийцы оказывается слишком сложным, он прибегает к помощи доктора Лектера, одного из ведущих психиатрических умов в стране.-Сезон: 3
Серии: 13 из 13 серий
Продолжительность: ~ 00:42:00 мин серия-
Качество видео: WEBDLRip
Контейнер: AVI
Видео кодек: XviD
Аудио кодек: MP3
Видео: MPEG-4 Visual at 2489 Кбит/сек: 720 x 400 (1.800) at 23.976 fps: 0.36 Бит/Пиксели
Аудио Rus: MPEG Audio at 128 Кбит/сек, 2 канала, 48,0 КГц |AlexFilm|
Аудио Eng: MPEG Audio at 128 Кбит/сек, 2 канала, 48,0 КГц |Original|
Cубтитры: отсутствуют
- -
  • Итальянская закуска ассорти (Antipasto)
  • Весна (Primavera)
  • Второе блюдо (Secondo)
  • Аперитив (Aperitivo)
  • Гарнир (Contorno)
  • Десерт (Dolce)
  • Дижестив (Digestivo)
  • Великий Красный дракон (The Great Red Dragon)
  • ... И жена, облечённая солнцем (... And the Woman Clothed with the Sun)
  • ... И жена, облечённая в солнце (... And the Woman Clothed in Sun)
  • … И Животное от Моря (…And the Beast from the Sea)
  • Число зверя – 666 (The Number of the Beast Is 666)
  • Гнева Агнца (The Wrath of the Lamb)
-
Общее
Полное имя : E:\_Сериалы\_Сериалы\Ганнибал\Hannibal - Season 3 (AlexFilm) HDTVRip\Hannibal.s03e01.HDTVRip.Rus.Eng.AlexFilm.avi
Формат : AVI
Формат/Информация : Audio Video Interleave
Размер файла : 842 Мбайт
Продолжительность : 42 м.
Общий поток : 2759 Кбит/сек
Название фильма : Hannibal @ AlexFilm
Программа кодирования : VirtualDubMod 1.5.10.2 (build 2540/release)
Библиотека кодирования : VirtualDubMod build 2540/release
Видео
Идентификатор : 0
Формат : MPEG-4 Visual
Профиль формата : Advanced [email protected]
Параметр BVOP формата : Нет
Параметр QPel формата : Нет
Параметр GMC формата : Без точки перехода
Параметр матрицы формата : Default (H.263)
Идентификатор кодека : XVID
Идентификатор кодека/Подсказка : XviD
Продолжительность : 42 м.
Битрейт : 2489 Кбит/сек
Ширина : 720 пикселей
Высота : 400 пикселей
Соотношение сторон : 16:9
Частота кадров : 23,976 кадра/сек
Цветовое пространство : YUV
Субдискретизация насыщенности : 4:2:0
Битовая глубина : 8 бит
Тип развёртки : Прогрессивная
Метод сжатия : С потерями
Бит/(Пиксели*Кадры) : 0.360
Размер потока : 759 Мбайт (90%)
Библиотека кодирования : XviD 73
Аудио #1
Идентификатор : 1
Формат : MPEG Audio
Версия формата : Version 1
Профиль формата : Layer 3
Режим : Joint stereo
Расширение режима : MS Stereo
Идентификатор кодека : 55
Идентификатор кодека/Подсказка : MP3
Продолжительность : 42 м.
Вид битрейта : Постоянный
Битрейт : 128 Кбит/сек
Каналы : 2 канала
Частота : 48,0 КГц
Метод сжатия : С потерями
Размер потока : 39,0 Мбайт (5%)
Выравнивание : Соединение по промежуткам
Продолжительность промежутка : 42 мс. (1,00 видеокадр)
Время предзагрузки промежутка : 504 мс.
Заголовок : Russian (AlexFilm)
Библиотека кодирования : LAME3.90.3
Аудио #2
Идентификатор : 2
Формат : MPEG Audio
Версия формата : Version 1
Профиль формата : Layer 3
Режим : Joint stereo
Расширение режима : MS Stereo
Идентификатор кодека : 55
Идентификатор кодека/Подсказка : MP3
Продолжительность : 42 м.
Вид битрейта : Постоянный
Битрейт : 128 Кбит/сек
Каналы : 2 канала
Частота : 48,0 КГц
Метод сжатия : С потерями
Размер потока : 39,0 Мбайт (5%)
Выравнивание : Соединение по промежуткам
Продолжительность промежутка : 42 мс. (1,00 видеокадр)
Время предзагрузки промежутка : 504 мс.
Заголовок : English
Библиотека кодирования : LAME3.90.3
-
-Скриншоты:
-
-
1. Открыть торрент
2. Снять галки с тех файлов торрента, которые мы не хотим закачивать. Оставляем только на нужных нам файлах (файле).
3. Нажать О.К.
В клиенте utorrent
Инструкция
1) Открыть торрент

2) Снять галки с тех файлов торрента, которые мы не хотим закачивать:
* либо вручную, снимая с каждого файла галку( скрин №1)
* либо, нажав кнопку "Снять метки (Select None)", сняв сразу со всех файлов(скрин №2)
№1

№2

Оставляем только на нужных нам файлах (файле).

3)Нажать О.К
Добавлена тринадцатая, заключительная, серия третьего сезона
Download / Скачать

Хотите скачать бесплатно? Зарегистрируйтесь на сайте (ссылка на регистрацию). Pirat.ca - самый быстрый торрент трекер в рунете!

Как скачивать  ·   Что такое торрент  ·   Рейтинг и ограничения



Последний раз редактировалось: kugesan (2015-08-30 23:06), всего редактировалось 36 раз(а)

klepius

Лоцман

Пост 28-Июн-2015 03:09 (спустя 1 год 8 месяцев)

[Q] 

Чего-то и 3-ю серию перекачивать стало, нипанять
[Профиль]  [ЛС] 

kugesan ®

56657

Пост 28-Июн-2015 12:57 (спустя 9 часов)

[Q] 

Алексы поменяли звук в третьей серии

_________________

В мире две бесконечности: вселенная и человеческая глупость - Альберт Эйнштен
«Можно вытащить человека из грязи, но нельзя вытащить грязь из человека»!
[Профиль]  [ЛС] 

I-1vadim

Шкипер

Пост 29-Июн-2015 21:02 (спустя 1 день 8 часов)

[Q] 

Третий сезон чего-то немного замудренный стал.
[Профиль]  [ЛС] 

MaXoR

Флибустьер

1473

Пост 11-Июл-2015 15:16 (спустя 11 дней)

[Q] 

5 серию не могу досмотреть, в такую мутотень превратился сериал...

_________________
Живы будем - не помрем!
[Профиль]  [ЛС] 

maxvel911

Морской Волк

Пост 20-Июл-2015 18:54 (спустя 9 дней)

[Q] 

Муть, испоганили сериал.
[Профиль]  [ЛС] 

klepius

Лоцман

Пост 20-Июл-2015 19:35 (спустя 41 минута)

[Q] 

692240Муть, испоганили сериал.
Да вроде всё нормально, мути не заметил, всё вроде как и должно быть
[Профиль]  [ЛС] 

shelby290

Флибустьер

Пост 30-Июл-2015 20:32 (спустя 10 дней)

[Q] 

Почему муть?? Как по мне, нормально!
[Профиль]  [ЛС] 

klepius

Лоцман

Пост 23-Авг-2015 21:55 (спустя 24 дня)

[Q] 

Вопрос, 8,9,10 изменён формат ? А то чего то перекачивает их
[Профиль]  [ЛС] 

kugesan ®

56657

Пост 23-Авг-2015 22:24 (спустя 29 минут)

[Q] 

klepius, Алексы постоянно работают над улучшением качества рипов, я уже просто устал об этом писать... так что если что то обновляется значит стало лучше)))

_________________

В мире две бесконечности: вселенная и человеческая глупость - Альберт Эйнштен
«Можно вытащить человека из грязи, но нельзя вытащить грязь из человека»!
[Профиль]  [ЛС] 

Gyljaka

Корсар

Пост 24-Авг-2015 08:07 (спустя 9 часов)

[Q] 

Новая серия... Отлично...
Лови бочку
[Профиль]  [ЛС] 

kugesan ®

56657

Пост 24-Авг-2015 11:07 (спустя 3 часа)

[Q] 

Приятного просмотра!!!

_________________

В мире две бесконечности: вселенная и человеческая глупость - Альберт Эйнштен
«Можно вытащить человека из грязи, но нельзя вытащить грязь из человека»!
[Профиль]  [ЛС] 

kugesan ®

56657

Пост 30-Авг-2015 23:07 (спустя 6 дней)

[Q] 

Добавлена тринадцатая, заключительная, серия третьего сезона

_________________

В мире две бесконечности: вселенная и человеческая глупость - Альберт Эйнштен
«Можно вытащить человека из грязи, но нельзя вытащить грязь из человека»!
[Профиль]  [ЛС] 

Пост 31-Авг-2015 01:35 (спустя 2 часа 27 минут)

Топик был перенесен из форума Сериалы в эфире в форум Зарубежные сериалы
Андря
 
Показать сообщения:    
Ответить на тему

Текущее время: Сегодня 20:00

Часовой пояс: GMT + 4



Вы не можете начинать темы
Вы не можете отвечать на сообщения
Вы не можете редактировать свои сообщения
Вы не можете удалять свои сообщения
Вы не можете голосовать в опросах
Вы не можете прикреплять файлы к сообщениям
Вы не можете скачивать файлы

▼ Вниз