ML
     
  Уважаемый Гость!
Вы можете поддержать проект и зарегистрироваться у наших партнеров - онлайн-стратегия MyLands. При регистрации в игре Вы получите код, который сможете активировать после регистрации на pirat.ca и получить 1000 дублонов.

Ваш код:
8b752b428cf60a012c159dcae592cd1392170115
 
     

Люди будущего / The Tomorrow People (Сезон 1 / полный / 22 серии) (Дэнни Кэннон / Danny Cannon) [2013г., Фантастика, Драма, WEB-DLRip] MVO (NewStudio) + Original (Eng)

Ответить на тему
 
Автор
Сообщение

Пост 13-Окт-2013 13:04

[Q] 

kugesan

Люди будущего
The Tomorrow People
- Русское название: Люди будущего
Оригинальное название: The Tomorrow People
Страна: США
Год выпуска: 2013
Жанр: Фантастика, Драма-Озвучка: Студия NewStudio
Перевод: Многоголосый закадровый, профессиональный
Оригинальный аудиопоток: английский
Автор перевода: Weirdie-Премьера (мир): 9 октября 2013г.-Режиссер: Дэнни Кэннон / Danny Cannon
В главных ролях: Робби Амелл, Аманда Кларк, Пейтон Лист, Мадлен Манток, Люк Митчелл, Марк Пеллегрино, Аарон Йу, Сара Кларк, Джеффри Пирс, Питер Гринвуд ...-Описание фильма:
Научно-фантастический проект, герои которого являются прототипом следующего «этапа эволюции человека». Свои способности к телепатии, телекинезу или телепортации, им приходится развивать в подростковом возрасте.-Сезон: 1
Серии: 22 из 22 серий
Продолжительность: ~ 00:45:00 мин серия-Качество видео: WEB-DLRip
Формат: AVI
Видеокодек: XviD
Аудиокодек: Mp3
Видео: MPEG-4 Visual at 1360 Кбит/сек, 720 x 400 (1.800) at 23.976 fps, 0.197 Бит/Пиксели
Аудио Rus: MPEG Audio at 128 Кбит/сек, 2 канала, 48,0 КГц |NewStudio|
Аудио Eng: MPEG Audio at 128 Кбит/сек, 2 канала, 48,0 КГц |Original|
- -Сериал "Люди будущего" на треке Pirat.ca-
  • Pilot / Пилот
  • Погружение / In Too Deep
  • Остановленная девчонка (Girl, Interrupted)
  • Убей или умри (Kill or Be Killed)
  • Все будущие вечеринки (All Tomorrow's Parties)
  • Сочувствую вашей утрате (Sorry for Your Loss)
  • Заточение (Limbo)
  • Тонатос (Thanatos)
  • Дверь в забвение (Death's Door)
  • Цитадель (The Citadel)
  • Разборка (Rumble)
  • Легкие мишени (Sitting Ducks)
  • Всё распадается (Things Fall Apart)
  • Брат-хранитель (Brother's Keeper)
  • Враг моего врага (Enemy of My Enemy)
  • Супергерой (Superhero)
  • Окончательный план (Endgame)
  • Дым и зеркала (Smoke and Mirrors)
  • Модус вивенди (Modus Vivendi)
  • Что-то вроде возвращения домой (A Sort of Homecoming)
  • Смертельная кнопка (Kill Switch)
  • Сын человеческий (Son of Man)
-
Код:
Общее
Полное имя                               : E:\_Сериалы\Люди будущего\The Tomorrow People 1 - NewStudio\The.Tomorrow.People.s01e01.WEBDLRip.NewStudio.TV.avi
Формат                                   : AVI
Формат/Информация                        : Audio Video Interleave
Размер файла                             : 499 Мбайт
Продолжительность                        : 42 м.
Общий поток                              : 1630 Кбит/сек
Программа кодирования                    : VirtualDubMod 1.5.10.2 (build 2540/release)
Библиотека кодирования                   : VirtualDubMod build 2540/release
Видео
Идентификатор                            : 0
Формат                                   : MPEG-4 Visual
Профиль формата                          : Advanced [email protected]
Параметр BVOP формата                    : 2
Параметр QPel формата                    : Нет
Параметр GMC формата                     : Без точки перехода
Параметр матрицы формата                 : Default (MPEG)
Идентификатор кодека                     : XVID
Идентификатор кодека/Подсказка           : XviD
Продолжительность                        : 42 м.
Битрейт                                  : 1360 Кбит/сек
Ширина                                   : 720 пикселей
Высота                                   : 400 пикселей
Соотношение сторон                       : 16:9
Частота кадров                           : 23,976 кадра/сек
Цветовое пространство                    : YUV
Субдискретизация насыщенности            : 4:2:0
Битовая глубина                          : 8 бит
Тип развёртки                            : Прогрессивная
Метод сжатия                             : С потерями
Бит/(Пиксели*Кадры)                      : 0.197
Размер потока                            : 417 Мбайт (83%)
Библиотека кодирования                   : XviD 64
Аудио #1
Идентификатор                            : 1
Формат                                   : MPEG Audio
Версия формата                           : Version 1
Профиль формата                          : Layer 3
Режим                                    : Joint stereo
Расширение режима                        : MS Stereo
Идентификатор кодека                     : 55
Идентификатор кодека/Подсказка           : MP3
Продолжительность                        : 42 м.
Вид битрейта                             : Постоянный
Битрейт                                  : 128 Кбит/сек
Каналы                                   : 2 канала
Частота                                  : 48,0 КГц
Метод сжатия                             : С потерями
Размер потока                            : 39,2 Мбайт (8%)
Выравнивание                             : Соединение по промежуткам
Продолжительность промежутка             : 42  мс. (1,00 видеокадр)
Время предзагрузки промежутка            : 504  мс.
Аудио #2
Идентификатор                            : 2
Формат                                   : MPEG Audio
Версия формата                           : Version 1
Профиль формата                          : Layer 3
Режим                                    : Joint stereo
Расширение режима                        : MS Stereo
Идентификатор кодека                     : 55
Идентификатор кодека/Подсказка           : MP3
Продолжительность                        : 42 м.
Вид битрейта                             : Постоянный
Битрейт                                  : 128 Кбит/сек
Каналы                                   : 2 канала
Частота                                  : 48,0 КГц
Метод сжатия                             : С потерями
Размер потока                            : 39,2 Мбайт (8%)
Выравнивание                             : Соединение по промежуткам
Продолжительность промежутка             : 42  мс. (1,00 видеокадр)
Время предзагрузки промежутка            : 504  мс.
-
-Скриншоты:
-
-Добавлена двадцать вторая, заключительная, серия первого сезона
Download / Скачать

Хотите скачать бесплатно? Зарегистрируйтесь на сайте (ссылка на регистрацию). Pirat.ca - самый быстрый торрент трекер в рунете!

Как скачивать  ·   Что такое торрент  ·   Рейтинг и ограничения



Последний раз редактировалось: kugesan (2014-05-08 09:33), всего редактировалось 31 раз(а)

airat85

Корсар

Пост 27-Мар-2014 19:37 (спустя 5 месяцев 14 дней)

[Q] 

спасибо!!! каждую серию жду с нетерпением!!! Лови бочку
[Профиль]  [ЛС] 

kugesan ®

56634

Пост 27-Мар-2014 21:04 (спустя 1 час 26 минут)

[Q] 

Приятного просмотра!!!

_________________

В мире две бесконечности: вселенная и человеческая глупость - Альберт Эйнштен
«Можно вытащить человека из грязи, но нельзя вытащить грязь из человека»!
[Профиль]  [ЛС] 

stas-burn

Корсар

Пост 03-Апр-2014 08:07 (спустя 6 дней)

[Q] 

Спасибо!!! !COOL!
[Профиль]  [ЛС] 

kugesan ®

56634

Пост 17-Апр-2014 14:17 (спустя 14 дней)

[Q] 

Добавлена девятнадцатая серия

_________________

В мире две бесконечности: вселенная и человеческая глупость - Альберт Эйнштен
«Можно вытащить человека из грязи, но нельзя вытащить грязь из человека»!
[Профиль]  [ЛС] 

airat85

Корсар

Пост 18-Апр-2014 10:50 (спустя 20 часов)

[Q] 

начал смотреть, но перестал! слишком все затянуто! можно было бы сократить некоторые моменты! линия сюжетная понятна, но каждая отдельная серия с этой линией соприкасается от части, не затянуло меня короче) Лови бочку
[Профиль]  [ЛС] 

Reny

Штурман

Пост 05-Май-2014 00:22 (спустя 16 дней)

[Q] 

Спасибо, попробую посмотреть!
Добавлено спустя 12 минут 4 секунды:
хм, скачать бы сначала :)
люююди есть кто на раздаче??
[Профиль]  [ЛС] 

kugesan ®

56634

Пост 08-Май-2014 09:34 (спустя 3 дня)

[Q] 

Добавлена двадцать вторая, заключительная, серия первого сезона

_________________

В мире две бесконечности: вселенная и человеческая глупость - Альберт Эйнштен
«Можно вытащить человека из грязи, но нельзя вытащить грязь из человека»!
[Профиль]  [ЛС] 

Reny

Штурман

Пост 08-Май-2014 11:49 (спустя 2 часа 14 минут)

[Q] 

Спасибо!!!!
Хороший сериал!
[Профиль]  [ЛС] 

poleshuk

Морской Волк

Пост 08-Май-2014 22:29 (спустя 10 часов)

[Q] 

спасибо за раздачу!!
!COOL! Спасибо!!!
[Профиль]  [ЛС] 

янка-сан

Гроза морей

Пост 18-Дек-2015 20:04 (спустя 1 год 7 месяцев)

[Q] 

и никого на раздаче(
[Профиль]  [ЛС] 
Показать сообщения:    
Ответить на тему

Текущее время: Сегодня 06:24

Часовой пояс: GMT + 4



Вы не можете начинать темы
Вы не можете отвечать на сообщения
Вы не можете редактировать свои сообщения
Вы не можете удалять свои сообщения
Вы не можете голосовать в опросах
Вы не можете прикреплять файлы к сообщениям
Вы не можете скачивать файлы

▼ Вниз