ML
     
  Уважаемый Гость!
Вы можете поддержать проект и зарегистрироваться у наших партнеров - онлайн-стратегия MyLands. При регистрации в игре Вы получите код, который сможете активировать после регистрации на pirat.ca и получить 1000 дублонов.

Ваш код:
a6d1ef7ff63e237add5a4c8b21d8aa937c5e9b4b
 
     

Люди будущего / The Tomorrow People (Сезон 1 / полный / 22 серии) (Дэнни Кэннон / Danny Cannon) [2013г., Фантастика, Драма, WEB-DLRip] MVO (BaibaKo) + Original (Eng)

Ответить на тему
 
Автор
Сообщение

Пост 13-Окт-2013 13:30

[Q] 

kugesan

Люди будущего
The Tomorrow People
- Русское название: Люди будущего
Оригинальное название: The Tomorrow People
Страна: США
Год выпуска: 2013
Жанр: Фантастика, Драма-Релиз:
Перевод: Многоголосый закадровый, профессиональный
Оригинальный аудиопоток: английский-Автор перевода:: Татьяна Saavick
Озвучка: Юлия Котурбаш, Олекса Мельник, Сергей Корчак и Виталий Ткаченко
Монтаж: Виталий Ткаченко
Обложка: tvblog-Премьера (мир): 9 октября 2013г.-Режиссер: Дэнни Кэннон / Danny Cannon
В главных ролях: Робби Амелл, Аманда Кларк, Пейтон Лист, Мадлен Манток, Люк Митчелл, Марк Пеллегрино, Аарон Йу, Сара Кларк, Джеффри Пирс, Питер Гринвуд ...-Описание фильма:
Научно-фантастический проект, герои которого являются прототипом следующего «этапа эволюции человека». Свои способности к телепатии, телекинезу или телепортации, им приходится развивать в подростковом возрасте.-Сезон: 1
Серии: 22 из 22 серий
Продолжительность: ~ 00:42:00 мин серия-Качество видео: WEB-DLRip
Формат: AVI
Видеокодек: XviD
Аудиокодек: Mp3
Видео: MPEG-4 Visual at 1506 Кбит/сек, 720 x 400 (1.800) at 23.976 fps, 0.218 Бит/Пиксели
Аудио Rus: MPEG Audio at 192 Кбит/сек, 2 канала, 48,0 КГц |BaibaKo|
Аудио Eng: MPEG Audio at 192 Кбит/сек, 2 канала, 48,0 КГц |Original|
- -Сериал "Люди будущего" на треке Pirat.ca-
  • Pilot / Пилот
  • Погружение / In Too Deep
  • Остановленная девчонка (Girl, Interrupted)
  • Убей или умри (Kill or Be Killed)
  • Все будущие вечеринки (All Tomorrow's Parties)
  • Сочувствую вашей утрате (Sorry for Your Loss)
  • Лимб (Limbo)
  • Танатос (Thanatos)
  • Дверь в забвение (Death's Door)
  • Цитадель (The Citadel)
  • Разборка (Rumble)
  • Легкие мишени (Sitting Ducks)
  • Всё распадается (Things Fall Apart)
  • Охраняющий брата (Brother's Keeper)
  • Враг моего врага (Enemy of My Enemy)
  • Супергерой (Superhero)
  • Окончательный план (Endgame)
  • Дым и зеркала (Smoke and Mirrors)
  • Временное соглашение (Modus Vivendi)
  • Возвращение домой (A Sort of Homecoming)
  • Реле смерти (Kill Switch)
  • Cын человеческий (Son of Man)
-
Код:
Общее
Полное имя                               : E:\_Сериалы\Люди будущего\The Tomorrow People 1 - BaibaKo\The.Tomorrow.People.s01e01.WEB-DLRip.XviD.Rus.Eng.BaibaKo.avi
Формат                                   : AVI
Формат/Информация                        : Audio Video Interleave
Размер файла                             : 580 Мбайт
Продолжительность                        : 42 м.
Общий поток                              : 1904 Кбит/сек
Программа кодирования                    : VirtualDubMod 1.5.10.2 (build 2542/release)
Библиотека кодирования                   : VirtualDubMod build 2542/release
Видео
Идентификатор                            : 0
Формат                                   : MPEG-4 Visual
Профиль формата                          : Advanced [email protected]
Параметр BVOP формата                    : 2
Параметр QPel формата                    : Нет
Параметр GMC формата                     : Без точки перехода
Параметр матрицы формата                 : Default (H.263)
Идентификатор кодека                     : XVID
Идентификатор кодека/Подсказка           : XviD
Продолжительность                        : 42 м.
Битрейт                                  : 1506 Кбит/сек
Ширина                                   : 720 пикселей
Высота                                   : 400 пикселей
Соотношение сторон                       : 16:9
Частота кадров                           : 23,976 кадра/сек
Цветовое пространство                    : YUV
Субдискретизация насыщенности            : 4:2:0
Битовая глубина                          : 8 бит
Тип развёртки                            : Прогрессивная
Метод сжатия                             : С потерями
Бит/(Пиксели*Кадры)                      : 0.218
Размер потока                            : 459 Мбайт (79%)
Библиотека кодирования                   : XviD 1.2.1 (UTC 2008-12-04)
Аудио #1
Идентификатор                            : 1
Формат                                   : MPEG Audio
Версия формата                           : Version 1
Профиль формата                          : Layer 3
Режим                                    : Joint stereo
Расширение режима                        : MS Stereo
Идентификатор кодека                     : 55
Идентификатор кодека/Подсказка           : MP3
Продолжительность                        : 42 м.
Вид битрейта                             : Постоянный
Битрейт                                  : 192 Кбит/сек
Каналы                                   : 2 канала
Частота                                  : 48,0 КГц
Метод сжатия                             : С потерями
Размер потока                            : 58,5 Мбайт (10%)
Выравнивание                             : Соединение по промежуткам
Продолжительность промежутка             : 42  мс. (1,00 видеокадр)
Время предзагрузки промежутка            : 504  мс.
Библиотека кодирования                   : LAME3.99r
Настройки программы                      : -m j -V 4 -q 2 -lowpass 18.6 -b 192
Аудио #2
Идентификатор                            : 2
Формат                                   : MPEG Audio
Версия формата                           : Version 1
Профиль формата                          : Layer 3
Режим                                    : Joint stereo
Расширение режима                        : MS Stereo
Идентификатор кодека                     : 55
Идентификатор кодека/Подсказка           : MP3
Продолжительность                        : 42 м.
Вид битрейта                             : Постоянный
Битрейт                                  : 192 Кбит/сек
Каналы                                   : 2 канала
Частота                                  : 48,0 КГц
Метод сжатия                             : С потерями
Размер потока                            : 58,5 Мбайт (10%)
Выравнивание                             : Соединение по промежуткам
Продолжительность промежутка             : 42  мс. (1,00 видеокадр)
Время предзагрузки промежутка            : 504  мс.
Библиотека кодирования                   : LAME3.99r
Настройки программы                      : -m j -V 4 -q 2 -lowpass 18.6 -b 192
709478 & 121436 d
-
-Скриншоты:
-
-Добавлена двадцать вторая, заключительная, серия первого сезона
Download / Скачать

Хотите скачать бесплатно? Зарегистрируйтесь на сайте (ссылка на регистрацию). Pirat.ca - самый быстрый торрент трекер в рунете!

Как скачивать  ·   Что такое торрент  ·   Рейтинг и ограничения



Последний раз редактировалось: kugesan (2014-05-07 11:11), всего редактировалось 39 раз(а)

Gyry189

Штурман

Пост 13-Дек-2013 18:10 (спустя 2 месяца)

[Q] 

Люди дайте скорости плиз! Буду на раздаче!
[Профиль]  [ЛС] 

Region-89

Гроза морей

550

Пост 01-Мар-2014 12:44 (спустя 2 месяца 15 дней)

[Q] 

спасибо за сериал!

_________________
[Профиль]  [ЛС] 

ягжин

Гроза морей

Пост 19-Мар-2014 17:53 (спустя 18 дней)

[Q] 

Как сериал! Советуете или нет!
[Профиль]  [ЛС] 

Securityuser

Флибустьер

Пост 24-Мар-2014 09:46 (спустя 4 дня)

[Q] 

Посмотрел несколько серий, вроде нормально. Спасибо за раздачу!
[Профиль]  [ЛС] 

kugesan ®

56602

Пост 24-Мар-2014 18:16 (спустя 8 часов)

[Q] 

Приятного просмотра!!!

_________________

В мире две бесконечности: вселенная и человеческая глупость - Альберт Эйнштен
«Можно вытащить человека из грязи, но нельзя вытащить грязь из человека»!
[Профиль]  [ЛС] 

S_N_A_K_E

Флибустьер

Пост 11-Апр-2014 07:15 (спустя 17 дней)

[Q] 

смотреть можно) разницу между озвучкой от лостов не особо почувствовал Раздающему респект! Мне понравилось
[Профиль]  [ЛС] 

kugesan ®

56602

Пост 07-Май-2014 11:11 (спустя 26 дней)

[Q] 

Добавлена двадцать вторая, заключительная, серия первого сезона

_________________

В мире две бесконечности: вселенная и человеческая глупость - Альберт Эйнштен
«Можно вытащить человека из грязи, но нельзя вытащить грязь из человека»!
[Профиль]  [ЛС] 

Reny

Штурман

Пост 07-Май-2014 17:31 (спустя 6 часов)

[Q] 

раздача полностью уникальна?
скачаю всю так и быть раз тут 22 серия вышла быстрее...
пораздаю..
[Профиль]  [ЛС] 

Dypa4ek

Морской Волк

Пост 09-Май-2014 09:14 (спустя 1 день 15 часов)

[Q] 

Отличный сериальчик! Мне понравился!
Качают ВСЕ!!!
Лови бочку

_________________
[Профиль]  [ЛС] 

Barsuk177rus

Канонир

Пост 28-Янв-2015 22:44 (спустя 8 месяцев 19 дней)

[Q] 

Дайте раздачу, плизззз!!!!
[Профиль]  [ЛС] 
Показать сообщения:    
Ответить на тему

Текущее время: Сегодня 13:37

Часовой пояс: GMT + 4



Вы не можете начинать темы
Вы не можете отвечать на сообщения
Вы не можете редактировать свои сообщения
Вы не можете удалять свои сообщения
Вы не можете голосовать в опросах
Вы не можете прикреплять файлы к сообщениям
Вы не можете скачивать файлы

▼ Вниз