ML
     
  Уважаемый Гость!
Вы можете поддержать проект и зарегистрироваться у наших партнеров - онлайн-стратегия MyLands. При регистрации в игре Вы получите код, который сможете активировать после регистрации на pirat.ca и получить 1000 дублонов.

Ваш код:
73640f24f8a0f579e128ea7346fd2db2b1009143
 
     

Люди будущего / The Tomorrow People (Сезон 1 / полный / 22 серии) (Дэнни Кэннон / Danny Cannon) [2013г., Фантастика, Драма, WEB-DLRip] MVO (LostFilm)

Ответить на тему
 
Автор
Сообщение

Пост 14-Окт-2013 12:35

[Q] 

kugesan

Люди будущего
The Tomorrow People
- Русское название: Люди будущего
Оригинальное название: The Tomorrow People
Страна: США
Год выпуска: 2013
Жанр: Фантастика, Драма-Озвучка: Студия LostFilm
Перевод: Многоголосый закадровый, профессиональный-Премьера (мир): 9 октября 2013г.-Режиссер: Дэнни Кэннон / Danny Cannon
В главных ролях: Робби Амелл, Аманда Кларк, Пейтон Лист, Мадлен Манток, Люк Митчелл, Марк Пеллегрино, Аарон Йу, Сара Кларк, Джеффри Пирс, Питер Гринвуд ...-Описание фильма:
Научно-фантастический проект, герои которого являются прототипом следующего «этапа эволюции человека». Свои способности к телепатии, телекинезу или телепортации, им приходится развивать в подростковом возрасте.-Сезон: 1
Серии: 22 из 22 серий
Продолжительность: ~ 00:45:00 мин серия-Качество видео: WEB-DLRip
Формат: AVI
Видеокодек: XviD
Аудиокодек: Mp3
Видео: MPEG-4 Visual at 1591 Кбит/сек, 720 x 400 (1.800) at 23.976 fps, 0.230 Бит/Пиксели
Аудио Rus: MPEG Audio at 192 Кбит/сек? 2 канала, 48,0 КГц |LostFilm|
- -Сериал "Люди будущего" на треке Pirat.ca-
  • Pilot / Пилот
  • Погружение (In Too Deep)
  • Прерванная жизнь (Girl, Interrupted)
  • Убей или умри (Kill or Be Killed)
  • Все будущие вечеринки (All Tomorrow's Parties)
  • Примите соболезнования (Sorry for Your Loss)
  • Чистилище (Limbo)
  • Танатос (Thanatos)
  • На пороге смерти (Death's Door)
  • Цитадель (The Citadel)
  • Вмешательство (Rumble)
  • Живая мишень (Sitting Ducks)
  • Все рушится (Things Fall Apart)
  • Сторож брату своему (Brother's Keeper)
  • Враг моего врага (Enemy of My Enemy)
  • Супергерой (Superhero)
  • Эндшпиль (Endgame)
  • Дым и зеркала (Smoke and Mirrors)
  • Модус вивенди (Modus Vivendi)
  • Что-то вроде возвращения домой (A Sort of Homecoming)
  • Аварийное выключение (Kill Switch)
  • Сын человеческий (Son of Man)
-
Код:
Общее
Полное имя                               : E:\_Сериалы\Люди будущего\The Tomorrow People 1 - LostFilm\The.Tomorrow.People.S01E01.rus.LostFilm.TV.avi
Формат                                   : AVI
Формат/Информация                        : Audio Video Interleave
Размер файла                             : 548 Мбайт
Продолжительность                        : 42 м.
Режим общего битрейта                    : Переменный
Общий поток                              : 1792 Кбит/сек
Программа кодирования                    : Nandub v1.0rc2
Библиотека кодирования                   : Nandub build 1853/release
Видео
Идентификатор                            : 0
Формат                                   : MPEG-4 Visual
Профиль формата                          : [email protected]
Параметр BVOP формата                    : Нет
Параметр QPel формата                    : Нет
Параметр GMC формата                     : Без точки перехода
Параметр матрицы формата                 : Default (H.263)
Идентификатор кодека                     : XVID
Идентификатор кодека/Подсказка           : XviD
Продолжительность                        : 42 м.
Битрейт                                  : 1591 Кбит/сек
Ширина                                   : 720 пикселей
Высота                                   : 400 пикселей
Соотношение сторон                       : 16:9
Частота кадров                           : 23,976 кадра/сек
Цветовое пространство                    : YUV
Субдискретизация насыщенности            : 4:2:0
Битовая глубина                          : 8 бит
Тип развёртки                            : Прогрессивная
Метод сжатия                             : С потерями
Бит/(Пиксели*Кадры)                      : 0.230
Размер потока                            : 486 Мбайт (89%)
Библиотека кодирования                   : XviD 1.2.1 (UTC 2008-12-04)
Аудио
Идентификатор                            : 1
Формат                                   : MPEG Audio
Версия формата                           : Version 1
Профиль формата                          : Layer 3
Режим                                    : Joint stereo
Расширение режима                        : MS Stereo
Идентификатор кодека                     : 55
Идентификатор кодека/Подсказка           : MP3
Продолжительность                        : 42 м.
Вид битрейта                             : Переменный
Битрейт                                  : 192 Кбит/сек
Каналы                                   : 2 канала
Частота                                  : 48,0 КГц
Метод сжатия                             : С потерями
Размер потока                            : 57,5 Мбайт (10%)
Выравнивание                             : Соединение по промежуткам
Продолжительность промежутка             : 24  мс. (0,58 видеокадр)
Время предзагрузки промежутка            : 494  мс.
Библиотека кодирования                   : LAME3.97b
Настройки программы                      : -m j -V 4 -q 3 -lowpass 18.6 --abr 192
-
-Скриншоты:
-
-Добавлена двадцать вторая, заключительная, серия первого сезона
Download / Скачать

Хотите скачать бесплатно? Зарегистрируйтесь на сайте (ссылка на регистрацию). Pirat.ca - самый быстрый торрент трекер в рунете!

Как скачивать  ·   Что такое торрент  ·   Рейтинг и ограничения



Последний раз редактировалось: kugesan (2014-05-08 09:33), всего редактировалось 26 раз(а)

egor126

Гроза морей

Пост 14-Окт-2013 15:19 (спустя 2 часа 44 минуты)

[Q] 

Поддержу. Спасибо.
[Профиль]  [ЛС] 

kugesan ®

56646

Пост 14-Окт-2013 17:12 (спустя 1 час 52 минуты)

[Q] 

egor126, aa az

_________________

В мире две бесконечности: вселенная и человеческая глупость - Альберт Эйнштен
«Можно вытащить человека из грязи, но нельзя вытащить грязь из человека»!
[Профиль]  [ЛС] 

DDoS55

Флибустьер

2232

Пост 15-Окт-2013 19:58 (спустя 1 день 2 часа)

[Q] 

Спасибо!!!

_________________
включайте в торрент клиенте: DHT, обмен пирами, шифрование, ip-фильтр
[Профиль]  [ЛС] 

kugesan ®

56646

Пост 15-Окт-2013 20:01 (спустя 3 минуты)

[Q] 

DDoS55, Пожалуйста!

_________________

В мире две бесконечности: вселенная и человеческая глупость - Альберт Эйнштен
«Можно вытащить человека из грязи, но нельзя вытащить грязь из человека»!
[Профиль]  [ЛС] 

viktor41

Шкипер

Пост 27-Окт-2013 23:41 (спустя 12 дней)

[Q] 

Спасибо ! cy
[Профиль]  [ЛС] 

kugesan ®

56646

Пост 27-Окт-2013 23:55 (спустя 13 минут)

[Q] 

viktor41, Приятного просмотра!

_________________

В мире две бесконечности: вселенная и человеческая глупость - Альберт Эйнштен
«Можно вытащить человека из грязи, но нельзя вытащить грязь из человека»!
[Профиль]  [ЛС] 

S_N_A_K_E

Флибустьер

Пост 11-Апр-2014 07:13 (спустя 5 месяцев 14 дней)

[Q] 

вполне интересный. Мне понравилось
[Профиль]  [ЛС] 

kugesan ®

56646

Пост 08-Май-2014 09:34 (спустя 27 дней)

[Q] 

Добавлена двадцать вторая, заключительная, серия первого сезона

_________________

В мире две бесконечности: вселенная и человеческая глупость - Альберт Эйнштен
«Можно вытащить человека из грязи, но нельзя вытащить грязь из человека»!
[Профиль]  [ЛС] 

янка-сан

Гроза морей

Пост 18-Дек-2015 19:51 (спустя 1 год 7 месяцев)

[Q] 

как это я пропустила фантастичку?)) Лови бочку
[Профиль]  [ЛС] 

янка-сан

Гроза морей

Пост 20-Дек-2015 15:08 (спустя 1 день 19 часов)

[Q] 

не получилось скачать. за неделю ни одного раздающего(
[Профиль]  [ЛС] 
Показать сообщения:    
Ответить на тему

Текущее время: Сегодня 22:36

Часовой пояс: GMT + 4



Вы не можете начинать темы
Вы не можете отвечать на сообщения
Вы не можете редактировать свои сообщения
Вы не можете удалять свои сообщения
Вы не можете голосовать в опросах
Вы не можете прикреплять файлы к сообщениям
Вы не можете скачивать файлы

▼ Вниз