ML
     
  Уважаемый Гость!
Вы можете поддержать проект и зарегистрироваться у наших партнеров - онлайн-стратегия MyLands. При регистрации в игре Вы получите код, который сможете активировать после регистрации на pirat.ca и получить 1000 дублонов.

Ваш код:
b70663c760e7cd2521b8e123786cdd788200e3bd
 
     

Полиция Гавайев / Гавайи 5.0 / Hawaii Five-0 (Сезон: 2 / Серии: 1-23) (Стив Бойум, Брайан Спайсер, Брэд Тернер, Кристин Мур) [2011 г., Боевик, драма, криминал, WEB-DLRip] MVO (LostFilm)

Ответить на тему
 
Автор
Сообщение

Пост 15-Окт-2013 19:55

[Q] 

UcrusPazzo

Полиция Гавайев / Гавайи 5.0 / Hawaii Five-0
-Производство: США, Kurtzman Orci Paper Products, 101st Street Productions, CBS Productions
Жанр: Боевик, драма, криминал
Год выпуска: 2011 г.
Продолжительность: 23 серии по ~ 00:43:00, общее время - 16:30:59
Мировая премьера: 20 сентября 2010
Российская премьера: 18 апреля 2011
Перевод: Профессиональный (многоголосый, закадровый) [LostFilm]-Режиссер: Стив Бойум, Брайан Спайсер, Брэд Тернер, Кристин Мур
Сценарий: Алекс Куртцман, Питер М. Ленков, Роберто Орси
Продюсер: Алекс Куртцман, Питер М. Ленков, Роберто Орси
Оператор: Джеймс Л. Картер, Рональд Виктор Гарсия, Алан Казо
Композитор: Кит Пауэр, Брайан Тайлер, Майк МакКреди
Художник: Кит Нили, Гари Фруткофф, Скотт Миэн
Монтаж: Майя Врвило, Родерик Дэвис, Скотт Пауэлл-В ролях: Алекс О’Локлин (Alex O'Loughlin), Скотт Каан (Scott Caan), Дэниэл Дэ Ким (Daniel Dae Kim), Грейс Пак (Grace Park), Маси Ока (Masi Oka), Тайлор Уайли (Taylor Wily), Мишель Борт (Michelle Borth), Брайан Янг (Brian Yang), Тейлор Груббс (Teilor Grubbs), Дэннис Чун (Dennis Chun), Марк Дакаскос (Mark Dacascos), Йен Энтони Дэйл (Ian Anthony Dale), Терри О’Куинн (Terry O'Quinn), Кристин Лати (Christine Lahti)-Описание: Детектив Стив МакГарретт, бывший морской офицер с массой наград, а теперь полицейский, возвращается в Оаху расследовать убийство отца. Он остается на острове, после того, как губернатор штата Гавайи убедил его возглавить новую команду. Команда будет действовать по его правилам, при поддержке губернатора, без бюрократических проволочек, и с полным иммунитетом, все это — чтобы поймать самую крупную «дичь» в городе.
К МакГаррету присоединяется детектив Дэнни «Данно» Уильямс, недавно переведенный из Нью-Джерси полицейский, который предпочел бы небоскребы пляжам, но готов бороться с преступностью, чтобы его 8-летняя дочь чувствовала себя на островах в безопасности; и Чин Хо Келли, бывший детектив полиции Гонолулу, которого ошибочно обвинили в коррупции, и который когда-то был протеже отца МакГаррета. Двоюродная сестра Чина, Коно, прекрасная и бесстрашная уроженка островов, недавно выпустилась из академии, и рвется доказать, что она достойна места в элите департамента. МакГаррет клянется завершить дело отца, а члены нового спецотряда Five-O, может, и грызутся друг с другом, но настроены уничтожить преступность в пятидесятом штате.-Качество видео: WEB-DLRip
Контейнер: AVI
Видео кодек: XviD
Аудио кодек: MP3
Видео (с 1 по 6 серию) : 704x400 (1.76:1), 23.976 fps, XviD MPEG-4 ~1436 kbps avg, 0.21 bit/pixel
Видео (с 7 по 23 серию): 720x400 (1.80:1), 23.976 fps, XviD MPEG-4 ~1912 kbps avg, 0.28 bit/pixel
Аудио: 48 kHz, MPEG Layer 3, 2 ch, ~128.00 kbps avg
Cубтитры: отсутствуют
1. Несокрушимый (Ha'i'ole)
2. Новобранец (Ua Lawe Wale)
3. Герой (Kame'e)
4. Сокровище (Mea Makamae)
5. Чистка (Ma'eme'e)
6. Славный бой (Ka Hakaka Maika'i)
7. Священные кости (Ka Iwi Kapu)
8. Излечение (Lapa'au)
9. Личность (Ike Maka)
10. Обманщица (Ki'ilua)
11. Ловушка (Pahele)
12. Ушедший навсегда (Alaheo Pau'ole)
13. Взятка (Ka Ho' Oponopono)
14. Посылка (Pu'olo)
15. Из прошлого (Mai Ka Wa Kahiko)
16. Расплата (I Helu Pu)
17. Защитник (Kupale)
18. Радио (Lekio)
19. Вера (Kalele)
20. Брошенные (Ha'alele)
21. Прикосновение смерти (Pa Make Loa)
22. Пойманный (Ua Hopu)
23. Смерть близкого (Ua Hala)
Общее
Формат : AVI
Формат/Информация : Audio Video Interleave
Размер файла : 493 Мбайт
Продолжительность : 43 м.
Общий поток : 1578 Кбит/сек
Программа кодирования : Nandub v1.0rc2
Библиотека кодирования : Nandub build 1853/release
Видео
Идентификатор : 0
Формат : MPEG-4 Visual
Профиль формата : Advanced [email protected]
Параметр BVOP формата : 1
Параметр QPel формата : Нет
Параметр GMC формата : Без точки перехода
Параметр матрицы формата : Выборочная
Идентификатор кодека : XVID
Идентификатор кодека/Подсказка : XviD
Продолжительность : 43 м.
Битрейт : 1438 Кбит/сек
Ширина : 704 пикселя
Высота : 400 пикселей
Соотношение сторон : 16:9
Частота кадров : 23,976 кадра/сек
Цветовое пространство : YUV
Субдискретизация насыщенности : 4:2:0
Битовая глубина : 8 бит
Тип развёртки : Прогрессивная
Метод сжатия : С потерями
Бит/(Пиксели*Кадры) : 0.213
Размер потока : 449 Мбайт (91%)
Библиотека кодирования : XviD 64
Аудио
Идентификатор : 1
Формат : MPEG Audio
Версия формата : Version 1
Профиль формата : Layer 3
Режим : Joint stereo
Расширение режима : MS Stereo
Идентификатор кодека : 55
Идентификатор кодека/Подсказка : MP3
Продолжительность : 43 м.
Вид битрейта : Постоянный
Битрейт : 128 Кбит/сек
Каналы : 2 канала
Частота : 48,0 КГц
Метод сжатия : С потерями
Задержка видео : 1 мс.
Размер потока : 39,9 Мбайт (8%)
Выравнивание : Соединение по промежуткам
Продолжительность промежутка : 24 мс. (0,58 видеокадр)
Время предзагрузки промежутка : 481 мс.
Общее
Формат : AVI
Формат/Информация : Audio Video Interleave
Размер файла : 620 Мбайт
Продолжительность : 42 м.
Общий поток : 2054 Кбит/сек
Программа кодирования : Nandub v1.0rc2
Библиотека кодирования : Nandub build 1853/release
Видео
Идентификатор : 0
Формат : MPEG-4 Visual
Профиль формата : [email protected]
Параметр BVOP формата : Нет
Параметр QPel формата : Нет
Параметр GMC формата : Без точки перехода
Параметр матрицы формата : Default (H.263)
Идентификатор кодека : XVID
Идентификатор кодека/Подсказка : XviD
Продолжительность : 42 м.
Битрейт : 1913 Кбит/сек
Ширина : 720 пикселей
Высота : 400 пикселей
Соотношение сторон : 16:9
Частота кадров : 23,976 кадра/сек
Цветовое пространство : YUV
Субдискретизация насыщенности : 4:2:0
Битовая глубина : 8 бит
Тип развёртки : Прогрессивная
Метод сжатия : С потерями
Бит/(Пиксели*Кадры) : 0.277
Размер потока : 577 Мбайт (93%)
Библиотека кодирования : XviD 1.2.1 (UTC 2008-12-04)
Аудио
Идентификатор : 1
Формат : MPEG Audio
Версия формата : Version 1
Профиль формата : Layer 3
Режим : Joint stereo
Расширение режима : MS Stereo
Идентификатор кодека : 55
Идентификатор кодека/Подсказка : MP3
Продолжительность : 42 м.
Вид битрейта : Постоянный
Битрейт : 128 Кбит/сек
Каналы : 2 канала
Частота : 48,0 КГц
Метод сжатия : С потерями
Задержка видео : 1 мс.
Размер потока : 38,6 Мбайт (6%)
Выравнивание : Соединение по промежуткам
Продолжительность промежутка : 24 мс. (0,58 видеокадр)
Время предзагрузки промежутка : 481 мс.
Сериал "Полиция Гавайев / Гавайи 5.0 / Hawaii Five-0" на треке Pirat.ca
Download / Скачать

Хотите скачать бесплатно? Зарегистрируйтесь на сайте (ссылка на регистрацию). Pirat.ca - самый быстрый торрент трекер в рунете!

Как скачивать  ·   Что такое торрент  ·   Рейтинг и ограничения



Последний раз редактировалось: UcrusPazzo (2013-11-02 00:09), всего редактировалось 2 раз(а)

UcrusPazzo ®

7670

Пост 15-Окт-2013 20:23 (спустя 27 минут)

[Q] 

1 сезон
3 сезон
4 сезон

_________________
[Профиль]  [ЛС] 

UcrusPazzo ®

7670

Пост 05-Мар-2015 22:56 (спустя 1 год 4 месяца)

[Q] 

Из-за нехватки места на диске, ушел с раздачи.
Оставил раздачу на группу Seed Aid

_________________
[Профиль]  [ЛС] 
Показать сообщения:    
Ответить на тему

Текущее время: Сегодня 00:19

Часовой пояс: GMT + 4



Вы не можете начинать темы
Вы не можете отвечать на сообщения
Вы не можете редактировать свои сообщения
Вы не можете удалять свои сообщения
Вы не можете голосовать в опросах
Вы не можете прикреплять файлы к сообщениям
Вы не можете скачивать файлы

▼ Вниз