ML
     
  Уважаемый Гость!
Вы можете поддержать проект и зарегистрироваться у наших партнеров - онлайн-стратегия MyLands. При регистрации в игре Вы получите код, который сможете активировать после регистрации на pirat.ca и получить 1000 дублонов.

Ваш код:
fcd618d94adc1456bccbde5047c9cd0930e4ae4d
 
     

Полиция Гавайев / Гавайи 5.0 / Hawaii Five-0 (Сезон: 3 / Серии: 1-24) (Стив Бойум, Брайан Спайсер, Брэд Тернер, Кристин Мур) [2012 г., Боевик, драма, криминал, WEB-DLRip] MVO (LostFilm)

Ответить на тему
 
Автор
Сообщение

Пост 15-Окт-2013 20:05

[Q] 

UcrusPazzo

Полиция Гавайев / Гавайи 5.0 / Hawaii Five-0
-Производство: США, Kurtzman Orci Paper Products, 101st Street Productions, CBS Productions
Жанр: Боевик, драма, криминал
Год выпуска: 2012 г.
Продолжительность: 24 серии по ~ 00:43:00, общее время - 17:19:45
Мировая премьера: 20 сентября 2010
Российская премьера: 18 апреля 2011
Перевод: Профессиональный (многоголосый, закадровый) [LostFilm]-Режиссер: Стив Бойум, Брайан Спайсер, Брэд Тернер, Кристин Мур
Сценарий: Алекс Куртцман, Питер М. Ленков, Роберто Орси
Продюсер: Алекс Куртцман, Питер М. Ленков, Роберто Орси
Оператор: Джеймс Л. Картер, Рональд Виктор Гарсия, Алан Казо
Композитор: Кит Пауэр, Брайан Тайлер, Майк МакКреди
Художник: Кит Нили, Гари Фруткофф, Скотт Миэн
Монтаж: Майя Врвило, Родерик Дэвис, Скотт Пауэлл-В ролях: Алекс О’Локлин (Alex O'Loughlin), Скотт Каан (Scott Caan), Дэниэл Дэ Ким (Daniel Dae Kim), Грейс Пак (Grace Park), Маси Ока (Masi Oka), Тайлор Уайли (Taylor Wily), Мишель Борт (Michelle Borth), Брайан Янг (Brian Yang), Тейлор Груббс (Teilor Grubbs), Дэннис Чун (Dennis Chun), Марк Дакаскос (Mark Dacascos), Йен Энтони Дэйл (Ian Anthony Dale), Терри О’Куинн (Terry O'Quinn), Кристин Лати (Christine Lahti)-Описание: Детектив Стив МакГарретт, бывший морской офицер с массой наград, а теперь полицейский, возвращается в Оаху расследовать убийство отца. Он остается на острове, после того, как губернатор штата Гавайи убедил его возглавить новую команду. Команда будет действовать по его правилам, при поддержке губернатора, без бюрократических проволочек, и с полным иммунитетом, все это — чтобы поймать самую крупную «дичь» в городе.
К МакГаррету присоединяется детектив Дэнни «Данно» Уильямс, недавно переведенный из Нью-Джерси полицейский, который предпочел бы небоскребы пляжам, но готов бороться с преступностью, чтобы его 8-летняя дочь чувствовала себя на островах в безопасности; и Чин Хо Келли, бывший детектив полиции Гонолулу, которого ошибочно обвинили в коррупции, и который когда-то был протеже отца МакГаррета. Двоюродная сестра Чина, Коно, прекрасная и бесстрашная уроженка островов, недавно выпустилась из академии, и рвется доказать, что она достойна места в элите департамента. МакГаррет клянется завершить дело отца, а члены нового спецотряда Five-O, может, и грызутся друг с другом, но настроены уничтожить преступность в пятидесятом штате.-Качество видео: WEB-DLRip
Контейнер: AVI
Видео кодек: XviD
Аудио кодек: MP3
Видео: 720x400 (1.80:1), 23.976 fps, XviD MPEG-4 ~1914 kbps avg, 0.28 bit/pixel
Аудио: 48 kHz, MPEG Layer 3, 2 ch, ~128.00 kbps avg
Cубтитры: отсутствуют
1. День матери (La O Na Makuahine)
2. Сомнение (Kanalua)
3. В дрейфе (Lana I Ka Moana)
4. Неудача (Popilikia)
5. Подношение (Mohai)
6. Воспоминания о прошлом (I Ka Wa Mamua)
7. Секрет (Ohuna)
8. Дьяволица (Wahine'inoloa)
9. Жажда смерти (Ha'awe Make Loa)
10. Поход (Huaka'i Kula)
11. Защитник (Kahu)
12. Запрет (Kapu)
13. Смертный приговор (Olelo Ho'Opa'I Make)
14. Скандал (Hana I Wa'Ia)
15. Крюк (Hookman)
16. Воин (Kekoa)
17. Игра (Pa'ani)
18. Куклы (Na Ki'i)
19. Близкий друг (Hoa Pili)
20. Обещание (Olelo Pa'a)
21. Журналистское расследование (Imi Loko Ka 'Uhane)
22. Плен (Ho'opio)
23. Семейные дела (He welo 'oihana)
24. Прощай и береги себя (Aloha. Malama Pono)
Общее
Формат : AVI
Формат/Информация : Audio Video Interleave
Размер файла : 645 Мбайт
Продолжительность : 43 м.
Общий поток : 2056 Кбит/сек
Программа кодирования : Nandub v1.0rc2
Библиотека кодирования : Nandub build 1853/release
Видео
Идентификатор : 0
Формат : MPEG-4 Visual
Профиль формата : [email protected]
Параметр BVOP формата : Нет
Параметр QPel формата : Нет
Параметр GMC формата : Без точки перехода
Параметр матрицы формата : Default (H.263)
Идентификатор кодека : XVID
Идентификатор кодека/Подсказка : XviD
Продолжительность : 43 м.
Битрейт : 1915 Кбит/сек
Ширина : 720 пикселей
Высота : 400 пикселей
Соотношение сторон : 16:9
Частота кадров : 23,976 кадра/сек
Цветовое пространство : YUV
Субдискретизация насыщенности : 4:2:0
Битовая глубина : 8 бит
Тип развёртки : Прогрессивная
Метод сжатия : С потерями
Бит/(Пиксели*Кадры) : 0.277
Размер потока : 601 Мбайт (93%)
Библиотека кодирования : XviD 1.2.1 (UTC 2008-12-04)
Аудио
Идентификатор : 1
Формат : MPEG Audio
Версия формата : Version 1
Профиль формата : Layer 3
Режим : Joint stereo
Расширение режима : MS Stereo
Идентификатор кодека : 55
Идентификатор кодека/Подсказка : MP3
Продолжительность : 43 м.
Вид битрейта : Постоянный
Битрейт : 128 Кбит/сек
Каналы : 2 канала
Частота : 48,0 КГц
Метод сжатия : С потерями
Размер потока : 40,1 Мбайт (6%)
Выравнивание : Соединение по промежуткам
Продолжительность промежутка : 24 мс. (0,58 видеокадр)
Время предзагрузки промежутка : 480 мс.
Сериал "Полиция Гавайев / Гавайи 5.0 / Hawaii Five-0" на треке Pirat.ca
Download / Скачать

Хотите скачать бесплатно? Зарегистрируйтесь на сайте (ссылка на регистрацию). Pirat.ca - самый быстрый торрент трекер в рунете!

Как скачивать  ·   Что такое торрент  ·   Рейтинг и ограничения



Последний раз редактировалось: UcrusPazzo (2013-11-02 00:08), всего редактировалось 2 раз(а)

UcrusPazzo ®

7670

Пост 15-Окт-2013 20:24 (спустя 19 минут)

[Q] 

1 сезон
2 сезон
4 сезон

_________________
[Профиль]  [ЛС] 

UcrusPazzo ®

7670

Пост 05-Мар-2015 22:56 (спустя 1 год 4 месяца)

[Q] 

Из-за нехватки места на диске, ушел с раздачи.
Оставил раздачу на группу Seed Aid

_________________
[Профиль]  [ЛС] 
Показать сообщения:    
Ответить на тему

Текущее время: Сегодня 12:52

Часовой пояс: GMT + 4



Вы не можете начинать темы
Вы не можете отвечать на сообщения
Вы не можете редактировать свои сообщения
Вы не можете удалять свои сообщения
Вы не можете голосовать в опросах
Вы не можете прикреплять файлы к сообщениям
Вы не можете скачивать файлы

▼ Вниз