ML
     
  Уважаемый Гость!
Вы можете поддержать проект и зарегистрироваться у наших партнеров - онлайн-стратегия MyLands. При регистрации в игре Вы получите код, который сможете активировать после регистрации на pirat.ca и получить 1000 дублонов.

Ваш код:
5af7de75d3db09b6a37bc8bab71b0e87ccde73d6
 
     

Однажды в сказке / Once Upon a Time / Сезон: 1-2 / Серии: 1-44 (Дин Уайт, Ральф Хемекер, Дэвид Соломон / Dean White, Ralph Hemecker, David Solomon) [2011-2012 г., фэнтези, мелодрама, приключения, WEB-DL] MVO (Кубик в Кубе)

Ответить на тему
 
Автор
Сообщение

Пост 15-Окт-2013 22:52

[Q] 

UnSlayeR

Флибустьер

-Однажды в сказке / Once Upon a Time-- Производство: USA, ABC Studios
Жанр: фэнтези, мелодрама, приключения
Год выпуска: 2011-2012 г.
Продолжительность: ~45 мин
Мировая премьера: 23 октября 2011
Российская премьера: 9 февраля 2012
Перевод: Профессиональный (многоголосый, закадровый) [Кубик в Кубе]
Режиссер: Дин Уайт, Ральф Хемекер, Дэвид Соломон / Dean White, Ralph Hemecker, David Solomon-В ролях: Джиннифер Гудвин, Дженнифер Моррисон, Роберт Карлайл, Лана Паррилла, Джаред Гилмор, Джошуа Даллас, Рафаэль Сбардж, Меган Ори, Джеми Дорнан, Беверли Эллиотт-Описание: Сюжет фэнтези разворачивается в двух мирах — современном и сказочном. Беззаботная жизнь 28-летней Эммы Свон меняется, когда ее 10-летний сын Генри, от которого она отказалась много лет назад, находит Эмму и объявляет, что она является дочерью Прекрасного Принца и Белоснежки. Само собой разумеется, у мальчишки нет никаких сомнений, что параллельно нашему существует альтернативный сказочный мир — город Сторибрук, в котором в итоге оказывается Эмма. Постепенно героиня привязывается к необычному мальчику и странному городу, жители которого «забыли», кем они были в прошлом. А все из-за проклятия Злой Королевы (по совместительству приемной матери Генри), с помощью которого колдунья остановила время в сказочной стране. Однако стоит протянуть руку — и сказка оживет. Эпическая битва за будущее двух миров начинается, но, чтобы одержать победу, Эмме придется принять свою судьбу…-
Качество видео: WEB-DL
Контейнер: AVI
Видео кодек: XviD
Аудио кодек: MP3
Видео: 624x352 (1.78:1), 23.976 fps, ~1000-1200 kbps avg, 0.195 bit/pixel
Аудио: 48 kHz, MPEG Layer 3, 2 ch, ~224.00 kbps avg
Аудио #2: 48 kHz, MPEG Layer 3, 2 ch, ~224.00 kbps avg
Cубтитры: отсутствуют
1 сезон
01- Пилот
02- То, что мы больше всего любим
03- Снегопад
04- Цена золота
05- Этот тихий голос
06- Пастух
07- Сердце - одинокий охотник
08- Отчаявшиеся души
09- Истинный север
10- 7:15 до полудня
11- Плод ядовитого дерева
12- Внешность обманчива
13- Что случилось с Фредериком?
14- Мечтательный
15- Пойман с поличным
16- Сердце тьмы
17- Трюк со шляпой
18- Помощник конюха
19- Возвращение
20- Странник
21- Красное как кровь яблоко
22- Страна без волшебства
2 сезон
01- Сломленный
02- Мы похожи
03- Владычица озера
04- Крокодил
05- Доктор
06- Талахасси
07- Дитя Луны
08- В Глубине
09- Королева Червей
10- Игра Сверчка
11- Чужак
12- Во имя брата
13- Кроха
14- Манхэттен
15- Королева мертва
16- Дочь мельника
17- Добро пожаловать в Сторибрук
18- Самоотверженный, храбрый и честный
19- Лейси
20- Злая Королева
21- Вторая звезда на право
22- И прямо до утра
Общее
Полное имя : Once.Upon.A.Time.s02e19.rus.eng.Kybik.v.Kybe.avi
Формат : AVI
Формат/Информация : Audio Video Interleave
Размер файла : 452 Мбайт
Продолжительность : 43 м.
Общий поток : 1462 Кбит/сек
Программа кодирования : VirtualDubMod 1.5.10.2 (build 2540/release)
Библиотека кодирования : VirtualDubMod build 2540/release
Видео
Идентификатор : 0
Формат : MPEG-4 Visual
Профиль формата : Advanced [email protected]
Параметр BVOP формата : 1
Параметр QPel формата : Нет
Параметр GMC формата : Без точки перехода
Параметр матрицы формата : Default (H.263)
Идентификатор кодека : XVID
Идентификатор кодека/Подсказка : XviD
Продолжительность : 43 м.
Битрейт : 1037 Кбит/сек
Ширина : 624 пикселя
Высота : 352 пикселя
Соотношение сторон : 16:9
Частота кадров : 23,976 кадра/сек
Цветовое пространство : YUV
Субдискретизация насыщенности : 4:2:0
Битовая глубина : 8 бит
Тип развёртки : Прогрессивная
Метод сжатия : С потерями
Бит/(Пиксели*Кадры) : 0.190
Размер потока : 309 Мбайт (68%)
Библиотека кодирования : XviD 65
Аудио #1
Идентификатор : 1
Формат : MPEG Audio
Версия формата : Version 1
Профиль формата : Layer 3
Идентификатор кодека : 55
Идентификатор кодека/Подсказка : MP3
Продолжительность : 43 м.
Вид битрейта : Постоянный
Битрейт : 224 Кбит/сек
Каналы : 2 канала
Частота : 48,0 КГц
Метод сжатия : С потерями
Размер потока : 69,2 Мбайт (15%)
Выравнивание : Соединение по промежуткам
Продолжительность промежутка : 42 мс. (1,00 видеокадр)
Время предзагрузки промежутка : 504 мс.
Аудио #2
Идентификатор : 2
Формат : MPEG Audio
Версия формата : Version 1
Профиль формата : Layer 3
Режим : Joint stereo
Расширение режима : MS Stereo
Идентификатор кодека : 55
Идентификатор кодека/Подсказка : MP3
Продолжительность : 43 м.
Вид битрейта : Постоянный
Битрейт : 224 Кбит/сек
Каналы : 2 канала
Частота : 48,0 КГц
Метод сжатия : С потерями
Размер потока : 69,2 Мбайт (15%)
Выравнивание : Соединение по промежуткам
Продолжительность промежутка : 42 мс. (1,00 видеокадр)
Время предзагрузки промежутка : 504 мс.
Библиотека кодирования : LAME3.99r
Настройки программы : -m j -V 4 -q 2 -lowpass 19.4 -b 224
Download / Скачать

Хотите скачать бесплатно? Зарегистрируйтесь на сайте (ссылка на регистрацию). Pirat.ca - самый быстрый торрент трекер в рунете!

Как скачивать  ·   Что такое торрент  ·   Рейтинг и ограничения



Последний раз редактировалось: UnSlayeR (2013-10-15 23:02), всего редактировалось 1 раз

okorm

889

Пост 26-Окт-2013 13:31 (спустя 10 дней)

[Q] 

Спасибо!!! Мне понравилось
[Профиль]  [ЛС] 

alex denver71

Флибустьер

Пост 27-Янв-2015 18:36 (спустя 1 год 3 месяца)

[Q] 

Автору респект!!! Сериал очень интересный,классный!!! Сказка как для детей,так и для взрослых. Смотрится на одном дыхании!!! ay
[Профиль]  [ЛС] 

Region-89

Гроза морей

550

Пост 27-Янв-2015 21:35 (спустя 2 часа 58 минут)

[Q] 

aa благодарю!

_________________
[Профиль]  [ЛС] 

Serg759

Корсар

Пост 04-Июл-2015 13:25 (спустя 5 месяцев 7 дней)

[Q] 

Сериал-то конечно интересный, вот только сказок много намешали
[Профиль]  [ЛС] 
Показать сообщения:    
Ответить на тему

Текущее время: Сегодня 14:08

Часовой пояс: GMT + 4



Вы не можете начинать темы
Вы не можете отвечать на сообщения
Вы не можете редактировать свои сообщения
Вы не можете удалять свои сообщения
Вы не можете голосовать в опросах
Вы не можете прикреплять файлы к сообщениям
Вы не можете скачивать файлы

▼ Вниз