ML
     
  Уважаемый Гость!
Вы можете поддержать проект и зарегистрироваться у наших партнеров - онлайн-стратегия MyLands. При регистрации в игре Вы получите код, который сможете активировать после регистрации на pirat.ca и получить 1000 дублонов.

Ваш код:
5f4e94775bc0501caff7b254e79328d304c817d9
 
     

Острые козырьки / Заточенные кепки / Peaky Blinders (Сезон 1, полный, 6 из 6 серий) [ColdFilm] (Отто Баферст / Otto Bathurst ...) [2013 г., Драма, HDTVRip] DVO

Ответить на тему
 
Автор
Сообщение

Пост 04-Ноя-2013 18:22

[Q] 

kugesan

Острые козырьки / Заточенные кепки / Peaky Blinders - Русское название: Заточенные кепки
Оригинальное название: Peaky Blinders
Страна: Великобритания
Год выпуска: 2013
Жанр: Драма-Релиз: |ColdFilm|
Перевод: Любительский (двухголосый, закадровый)
Озвучка: Ирина Грачева, Максим Максимов-Режиссер: Отто Баферст / Otto Bathurst, Том Харпер / Tom Harper
Актеры: Киллиан Мёрфи, Пол Андерсон, Джо Коул, Элфи Эванс-Мис, Сэм Нил, Иддо Голдберг, Софи Рандл, Хелен МакКрори, Тони Питтс, Нед Деннехи ...-Описание фильма:
Британский сериал о криминальном мире Бирмингема 20-х годов прошлого века, в котором многолюдная семья Шелби стала одной из самых жестоких и влиятельных гангстерских банд послевоенного времени. Фирменным знаком группировки, промышлявшей грабежами и азартными играми, стали зашитые в козырьки лезвия.-Дата мировой премьеры: 12 сентября 2013-Сезон: 1
Серии: 6 из 6 серий
Продолжительность: ~ 00:56:00 серия-Качество видео: HDTVRip
Контейнер: AVI
Видео кодек: XviD
Аудио кодек: AC3
Видео: MPEG-4 Visual at 850 Кбит/сек, 720 x 384 (1.875) at 25.000 fps, 0.123 bit/pixel
Аудио Rus: AC-3 at 192 Кбит/сек, 2 канала, 48,0 КГц |ColdFilm|
Аудио Eng: AC-3 at 192 Кбит/сек, 2 канала, 48,0 КГц |Original|
Cубтитры: отсутствуют
- -
  • Эпизод 1
  • Эпизод 2
  • Эпизод 3
  • Эпизод 4
  • Эпизод 5
  • Эпизод 6
-
Видео: MPEG4, XviD, 720x384 (1.875), 25.000 fps, 990 Kbps (0.143 bit/pixel)
Аудио: AC-3, 48.0 KHz, 2 ch, 192 Kbps, CBR
Видео: MPEG4, XviD, 688x384 (16:9), 23.976 fps, 984 Kbps (0.155 bit/pixel)
Аудио: MP3, 44.1 KHz, 2 ch, 128 Kbps, CBR [ColdFilm]
Видео: MPEG4, XviD, 720x400 (16:9), 25.000 fps, 988 Kbps (0.137 bit/pixel)
Аудио: AC-3, 48.0 KHz, 2 ch, 192 Kbps, CBR [ColdFilm]
Код:
Полное имя                       : F:\Сериал\раздача\Peaky_Blinders\Peaky.Blinders.S01E01.2013.ColdFilm.HDTVRip.avi
Формат                           : AVI
Формат/Информация                : Audio Video Interleave
Размер файла                     : 508 Мбайт
Продолжительность                : 56 м.
Общий поток                      : 1248 Кбит/сек
Программа кодирования            : VirtualDubMod 1.5.10.2 (build 2542/release)
Библиотека кодирования           : VirtualDubMod build 2542/release
Видео
Идентификатор                    : 0
Формат                           : MPEG-4 Visual
Профиль формата                  : Advanced [email protected]
Параметр BVOP формата            : 1
Параметр QPel формата            : Нет
Параметр GMC формата             : Без точки перехода
Параметр матрицы формата         : Выборочная
Идентификатор кодека             : XVID
Идентификатор кодека/Подсказка   : XviD
Продолжительность                : 56 м.
Битрейт                          : 850 Кбит/сек
Ширина                           : 720 пикс.
Высота                           : 384 пикс.
Соотношение сторон               : 1,875
Частота кадров                   : 25,000 кадр/сек
Цветовое пространство            : YUV
Подвыборка цветности             : 4:2:0
Битовая глубина                  : 8 бит
Тип развёртки                    : Прогрессивная
Метод сжатия                     : С потерями
Бит/(Пиксели*Кадры)              : 0.123
Размер потока                    : 346 Мбайт (68%)
Библиотека кодирования           : XviD 1.2.1 (UTC 2008-12-04)
Аудио #1
Идентификатор                    : 1
Формат                           : AC-3
Формат/Информация                : Audio Coding 3
Расширение режима                : CM (complete main)
Идентификатор кодека             : 2000
Продолжительность                : 56 м.
Вид битрейта                     : Постоянный
Битрейт                          : 192 Кбит/сек
Каналы                           : 2 канала
Расположение каналов             : Front: L R
Частота                          : 48,0 КГц
Битовая глубина                  : 16 бит
Метод сжатия                     : С потерями
Размер потока                    : 78,1 Мбайт (15%)
Выравнивание                     : Разделение по промежуткам
Продолжительность промежутка     : 40  мс. (1,00 видеокадр)
Время предзагрузки промежутка    : 500 ms
Аудио #2
Идентификатор                    : 2
Формат                           : AC-3
Формат/Информация                : Audio Coding 3
Расширение режима                : CM (complete main)
Идентификатор кодека             : 2000
Продолжительность                : 56 м.
Вид битрейта                     : Постоянный
Битрейт                          : 192 Кбит/сек
Каналы                           : 2 канала
Расположение каналов             : Front: L R
Частота                          : 48,0 КГц
Битовая глубина                  : 16 бит
Метод сжатия                     : С потерями
Размер потока                    : 78,1 Мбайт (15%)
Выравнивание                     : Разделение по промежуткам
Продолжительность промежутка     : 40  мс. (1,00 видеокадр)
Время предзагрузки промежутка    : 500 ms
Код:
Полное имя                       : F:\Сериал\раздача\Peaky_Blinders\Peaky.Blinders.S01E02.2013.ColdFilm.HDTVRip.avi
Формат                           : AVI
Формат/Информация                : Audio Video Interleave
Размер файла                     : 500 Мбайт
Продолжительность                : 58 м.
Общий поток                      : 1192 Кбит/сек
Программа кодирования            : VirtualDubMod 1.5.10.2 (build 2542/release)
Библиотека кодирования           : VirtualDubMod build 2542/release
Видео
Идентификатор                    : 0
Формат                           : MPEG-4 Visual
Профиль формата                  : Advanced [email protected]
Параметр BVOP формата            : 1
Параметр QPel формата            : Нет
Параметр GMC формата             : Без точки перехода
Параметр матрицы формата         : Default (H.263)
Идентификатор кодека             : XVID
Идентификатор кодека/Подсказка   : XviD
Продолжительность                : 58 м.
Битрейт                          : 990 Кбит/сек
Ширина                           : 720 пикс.
Высота                           : 384 пикс.
Соотношение сторон               : 1,875
Частота кадров                   : 25,000 кадр/сек
Цветовое пространство            : YUV
Подвыборка цветности             : 4:2:0
Битовая глубина                  : 8 бит
Тип развёртки                    : Прогрессивная
Метод сжатия                     : С потерями
Бит/(Пиксели*Кадры)              : 0.143
Размер потока                    : 415 Мбайт (83%)
Библиотека кодирования           : XviD 1.2.1 (UTC 2008-12-04)
Аудио
Идентификатор                    : 1
Формат                           : AC-3
Формат/Информация                : Audio Coding 3
Расширение режима                : CM (complete main)
Идентификатор кодека             : 2000
Продолжительность                : 58 м.
Вид битрейта                     : Постоянный
Битрейт                          : 192 Кбит/сек
Каналы                           : 2 канала
Расположение каналов             : Front: L R
Частота                          : 48,0 КГц
Битовая глубина                  : 16 бит
Метод сжатия                     : С потерями
Размер потока                    : 80,6 Мбайт (16%)
Выравнивание                     : Разделение по промежуткам
Продолжительность промежутка     : 40  мс. (1,00 видеокадр)
Время предзагрузки промежутка    : 500 ms
Код:
Полное имя                       : F:\Сериал\раздача\Peaky_Blinders\Peaky.Blinders.S01E03.2013.ColdFilm.HDTVRip.avi
Формат                           : AVI
Формат/Информация                : Audio Video Interleave
Размер файла                     : 452 Мбайт
Продолжительность                : 56 м.
Общий поток                      : 1124 Кбит/сек
Программа кодирования            : MEncoder SVN-r33883(20110719-gcc4.5.2)
Библиотека кодирования           : MPlayer
Видео
Идентификатор                    : 0
Формат                           : MPEG-4 Visual
Профиль формата                  : Advanced [email protected]
Параметр BVOP формата            : 2
Параметр QPel формата            : Нет
Параметр GMC формата             : Без точки перехода
Параметр матрицы формата         : Default (H.263)
Идентификатор кодека             : XVID
Идентификатор кодека/Подсказка   : XviD
Продолжительность                : 56 м.
Битрейт                          : 984 Кбит/сек
Ширина                           : 688 пикс.
Высота                           : 384 пикс.
Соотношение сторон               : 16:9
Частота кадров                   : 23,976 кадр/сек
Цветовое пространство            : YUV
Подвыборка цветности             : 4:2:0
Битовая глубина                  : 8 бит
Тип развёртки                    : Прогрессивная
Метод сжатия                     : С потерями
Бит/(Пиксели*Кадры)              : 0.155
Размер потока                    : 395 Мбайт (88%)
Библиотека кодирования           : XviD 1.2.1 (UTC 2008-12-04)
Аудио
Идентификатор                    : 1
Формат                           : MPEG Audio
Версия формата                   : Version 1
Профиль формата                  : Layer 3
Режим                            : Joint stereo
Расширение режима                : MS Stereo
Идентификатор кодека             : 55
Идентификатор кодека/Подсказка   : MP3
Продолжительность                : 56 м.
Вид битрейта                     : Постоянный
Битрейт                          : 128 Кбит/сек
Каналы                           : 2 канала
Частота                          : 44,1 КГц
Метод сжатия                     : С потерями
Задержка видео                   : 42 мс.
Размер потока                    : 51,4 Мбайт (11%)
Выравнивание                     : Соединение по промежуткам
Продолжительность промежутка     : 26  мс. (0,63 видеокадр)
Время предзагрузки промежутка    : 522 ms
Код:
Полное имя                       : F:\Сериал\раздача\Peaky_Blinders\Peaky.Blinders.S01E04.2013.ColdFilm.HDTVRip.avi
Формат                           : AVI
Формат/Информация                : Audio Video Interleave
Размер файла                     : 504 Мбайт
Продолжительность                : 59 м.
Общий поток                      : 1189 Кбит/сек
Программа кодирования            : VirtualDubMod 1.5.10.2 (build 2542/release)
Библиотека кодирования           : VirtualDubMod build 2542/release
Видео
Идентификатор                    : 0
Формат                           : MPEG-4 Visual
Профиль формата                  : Advanced [email protected]
Параметр BVOP формата            : 1
Параметр QPel формата            : Нет
Параметр GMC формата             : Без точки перехода
Параметр матрицы формата         : Default (H.263)
Идентификатор кодека             : XVID
Идентификатор кодека/Подсказка   : XviD
Продолжительность                : 59 м.
Битрейт                          : 988 Кбит/сек
Ширина                           : 720 пикс.
Высота                           : 400 пикс.
Соотношение сторон               : 16:9
Частота кадров                   : 25,000 кадр/сек
Цветовое пространство            : YUV
Подвыборка цветности             : 4:2:0
Битовая глубина                  : 8 бит
Тип развёртки                    : Прогрессивная
Метод сжатия                     : С потерями
Бит/(Пиксели*Кадры)              : 0.137
Размер потока                    : 419 Мбайт (83%)
Библиотека кодирования           : XviD 1.2.1 (UTC 2008-12-04)
Аудио
Идентификатор                    : 1
Формат                           : AC-3
Формат/Информация                : Audio Coding 3
Расширение режима                : CM (complete main)
Идентификатор кодека             : 2000
Продолжительность                : 59 м.
Вид битрейта                     : Постоянный
Битрейт                          : 192 Кбит/сек
Каналы                           : 2 канала
Расположение каналов             : Front: L R
Частота                          : 48,0 КГц
Битовая глубина                  : 16 бит
Метод сжатия                     : С потерями
Размер потока                    : 81,4 Мбайт (16%)
Выравнивание                     : Разделение по промежуткам
Продолжительность промежутка     : 40  мс. (1,00 видеокадр)
Время предзагрузки промежутка    : 500 ms
-Скриншоты:
--
-Добавлена шестая, заключительная, серия первого сезона
Download / Скачать

Хотите скачать бесплатно? Зарегистрируйтесь на сайте (ссылка на регистрацию). Pirat.ca - самый быстрый торрент трекер в рунете!

Как скачивать  ·   Что такое торрент  ·   Рейтинг и ограничения

Показать сообщения:    
Ответить на тему

Текущее время: Сегодня 15:36

Часовой пояс: GMT + 4



Вы не можете начинать темы
Вы не можете отвечать на сообщения
Вы не можете редактировать свои сообщения
Вы не можете удалять свои сообщения
Вы не можете голосовать в опросах
Вы не можете прикреплять файлы к сообщениям
Вы не можете скачивать файлы

▼ Вниз