ML
     
  Уважаемый Гость!
Вы можете поддержать проект и зарегистрироваться у наших партнеров - онлайн-стратегия MyLands. При регистрации в игре Вы получите код, который сможете активировать после регистрации на pirat.ca и получить 1000 дублонов.

Ваш код:
ca44e9295b9b8527ba1c339c20494f70782efea6
 
     

Отбросы / Долбанутые / Misfits / Сезон: 1-4 / Серии: 1-31 из 31 (Том Грин, Том Харпер / Tom Green, Tom Harper) [2009-2012 г., фантастика, комедия, драма, триллер, HDRip] DVO [Sub Rus, + Original (Eng)] (Кубик в Кубе)

Ответить на тему
 
Автор
Сообщение

Пост 08-Ноя-2013 08:09

[Q] 

UnSlayeR

Флибустьер

-Отбросы / Долбанутые / Misfits-- Производство: Великобритания, Канал E4
Жанр: фанстастика, комедия, драма, триллер
Год выпуска: 2013 г.
Продолжительность: ~45 мин.
Перевод: Профессиональный (двухголосый, закадровый) [Кубик в Кубе]
Оригинальный аудиопоток: английский
Режиссер: Том Грин, Том Харпер / Tom Green, Tom Harper-В ролях: Роберт Шиэн, Иван Реон, Лорен Соша, Антония Томас, Натан Стюарт-Джарретт, Алекс Рид, Рут Негга, Крэйг Паркинсон, Майкл Обиора, Анна Коваль-Описание: Келли, Нэйтан, Кёртис, Алиша и Саймон выполняют общественные работы за совершение мелких преступлений. Они — не друзья. Более того, у них нет ничего общего. В группе постоянно происходят конфликты, споры и драки. Но в удивительный день во время сильного шторма сильная молния делает из них супергероев и наделяет их сверхвозможностями. Они понятия не имеют, что делать с этими сверхвозможностями. Более того, никто из них не рад своей новой силе, потому что она раскрывает их самые глубокие комплексы и тайны, которые бы они не хотели выставлять напоказ. Например, Келли, озабоченная общественным мнением о себе, получает способность читать чужие мысли, а у Кёртиса появляется способность возвращать прошлое. Ребята просто хотят побыстрее закончить свои исправительные работы и окунуться с головой в обычную жизнь тинейджеров. Но судьба им припасла еще одно задание, ведь после ужасного шторма в городе сверхспособностями стали обладать не только они одни…-
Трейлер: http://www.kinopoisk.ru/film/485542/video/89054/
Качество видео: HDRip
Контейнер: AVI
Видео кодек: XviD
Аудио кодек: MP3
Видео: 720x400 (1.80:1), 25 fps, ~1905 kbps avg, 0.26 bit/pixel
Аудио: 48 kHz, AC3 Dolby Digital, 2/0 (L,R) ch, ~192.00 kbps avg
Аудио #2: 48 kHz, AC3 Dolby Digital, 2/0 (L,R) ch, ~192.00 kbps avg
Cубтитры: русские, английские (1-3 сезон)
Формат субтитров: softsub (SRT, ASS)
Общее
Полное имя : Misfits_s01e06_HDRip.avi
Формат : AVI
Формат/Информация : Audio Video Interleave
Размер файла : 705 Мбайт
Продолжительность : 43 м.
Общий поток : 2250 Кбит/сек
Программа кодирования : VirtualDubModRus 1.5.10.2 (build 2542/release)
Библиотека кодирования : VirtualDubMod build 2542/release
Видео
Идентификатор : 0
Формат : MPEG-4 Visual
Профиль формата : Advanced [email protected]
Параметр BVOP формата : 2
Параметр QPel формата : Нет
Параметр GMC формата : Без точки перехода
Параметр матрицы формата : Выборочная
Режим смешивания : Сжатый битовый поток
Идентификатор кодека : XVID
Идентификатор кодека/Подсказка : XviD
Продолжительность : 43 м.
Битрейт : 1852 Кбит/сек
Ширина : 720 пикселей
Высота : 400 пикселей
Соотношение сторон : 16:9
Частота кадров : 25,000 кадров/сек
Цветовое пространство : YUV
Субдискретизация насыщенности : 4:2:0
Битовая глубина : 8 бит
Тип развёртки : Прогрессивная
Метод сжатия : С потерями
Бит/(Пиксели*Кадры) : 0.257
Размер потока : 580 Мбайт (82%)
Библиотека кодирования : XviD 64
Аудио #1
Идентификатор : 1
Формат : AC-3
Формат/Информация : Audio Coding 3
Расширение режима : CM (complete main)
Идентификатор кодека : 2000
Продолжительность : 43 м.
Вид битрейта : Постоянный
Битрейт : 192 Кбит/сек
Каналы : 2 канала
Расположение каналов : Front: L R
Частота : 48,0 КГц
Битовая глубина : 16 бит
Метод сжатия : С потерями
Размер потока : 60,1 Мбайт (9%)
Выравнивание : Разделение по промежуткам
Продолжительность промежутка : 40 мс. (1,00 видеокадр)
Время предзагрузки промежутка : 500 мс.
Аудио #2
Идентификатор : 2
Формат : AC-3
Формат/Информация : Audio Coding 3
Расширение режима : CM (complete main)
Идентификатор кодека : 2000
Продолжительность : 43 м.
Вид битрейта : Постоянный
Битрейт : 192 Кбит/сек
Каналы : 2 канала
Расположение каналов : Front: L R
Частота : 48,0 КГц
Битовая глубина : 16 бит
Метод сжатия : С потерями
Размер потока : 60,1 Мбайт (9%)
Выравнивание : Разделение по промежуткам
Продолжительность промежутка : 40 мс. (1,00 видеокадр)
Время предзагрузки промежутка : 500 мс.
5-й Сезон: Отбросы / Долбанутые / Misfits / Сезон: 5 / Серии: 1-3 из 8 (Том Грин, Том Харпер / Tom Green, Tom Harper) [2013 г., фанстастика, комедия, драма, триллер, HDTVRip] DVO [Sub Rus, + Original (Eng)] (Кубик в Кубе)
Download / Скачать

Хотите скачать бесплатно? Зарегистрируйтесь на сайте (ссылка на регистрацию). Pirat.ca - самый быстрый торрент трекер в рунете!

Как скачивать  ·   Что такое торрент  ·   Рейтинг и ограничения

Пост 08-Ноя-2013 13:46 (спустя 5 часов)

Топик был перенесен из форума Зарубежные сериалы (Трюм) в форум Зарубежные сериалы
kugesan
 

Urcha

Штурман

Пост 24-Ноя-2013 00:18 (спустя 15 дней)

[Q] 

Спасибо! ......
[Профиль]  [ЛС] 

bsd13

Шкипер

Пост 12-Янв-2014 00:50 (спустя 1 месяц 18 дней)

[Q] 

спсасибо за релиз.

_________________
0(*_*)0
[Профиль]  [ЛС] 

sokolov-ml

Морской Волк

Пост 12-Фев-2015 00:53 (спустя 1 год)

[Q] 

Суперский сериал!!! Всем качать!!! !COOL!

_________________
Скорость-как наркотик, либо убивает либо доводит до состояния блаженства.
[Профиль]  [ЛС] 

FuckOOF

Корсар

Пост 30-Мар-2015 16:03 (спустя 1 месяц 18 дней)

[Q] 

надеюсь что хоть в этом релизе будет раздача Одобрямс!

_________________
[url] [/url]
[Профиль]  [ЛС] 

янка-сан

Гроза морей

Пост 18-Дек-2015 21:56 (спустя 8 месяцев 19 дней)

[Q] 

благодарю Автору респект!!!
[Профиль]  [ЛС] 

raul kurochka

Корсар

Пост 28-Янв-2016 20:00 (спустя 1 месяц 9 дней)

[Q] 

661711надеюсь что хоть в этом релизе будет раздача Одобрямс!
официально заявляю: "В ДАННОМ РЕЛИЗЕ (на момент написания камента) РАЗДАЧА ПОЛНЫМ ХОДОМ! ЙЕЕЕЙ!!"
Лови бочку

_________________
...ЧО ТАКОЙ СЕРЬЕЗНЫЙ???
[Профиль]  [ЛС] 
Показать сообщения:    
Ответить на тему

Текущее время: Сегодня 16:17

Часовой пояс: GMT + 4



Вы не можете начинать темы
Вы не можете отвечать на сообщения
Вы не можете редактировать свои сообщения
Вы не можете удалять свои сообщения
Вы не можете голосовать в опросах
Вы не можете прикреплять файлы к сообщениям
Вы не можете скачивать файлы

▼ Вниз