ML
     
  Уважаемый Гость!
Вы можете поддержать проект и зарегистрироваться у наших партнеров - онлайн-стратегия MyLands. При регистрации в игре Вы получите код, который сможете активировать после регистрации на pirat.ca и получить 1000 дублонов.

Ваш код:
a6d1ef7ff63e237add5a4c8b21d8aa937c5e9b4b
 
     

Почти человек / Almost Human (Сезон: 1 / Серии: 1-13 из 13) (Брэд Андерсон / Brad Anderson, Майкл Оффер / Michael Offer...) [2013-2014 гг., Фантастика, боевик, драма, WEB-DLRip, 720p] MVO (NewStudio) + Original (Eng) [Обновляемая]

Ответить на тему
 
Автор
Сообщение

Пост 20-Ноя-2013 11:47

[Q] 

UcrusPazzo

Почти человек / Almost Human«Some cops are born. Others are made»
"Одни копами рождаются. Другие ими становятся."
-Производство: США, Bad Robot, Frequency Films, Warner Bros. Television
Жанр: Фантастика, боевик, драма
Год выпуска: 2013-2014 гг.
Продолжительность: 13 серий по ~00:45:37
Мировая премьера: 17 ноября 2013
Оригинальный аудиопоток: английский
Перевод: Профессиональный (многоголосый, закадровый) [NewStudio]
Авторы перевода: PtyZa, Weirdie-Режиссер: Брэд Андерсон / Brad Anderson, Майкл Оффер / Michael Offer, Ларри Тенг / Larry Teng-В ролях: Карл Урбан, Майкл Или, Минка Келли, Майкл Ирби, Макензи Крук, Лили Тейлор, Джо Смит, Кэролайн Мэтьюз, Джейм Каллика, Элла Томас-Описание: 2048 год. Наука и технологии достигли невиданного развития. Улицы и школы заполонили неизвестные наркотики и новое оружие. Контрабанда контролируется и распространяется жестокими безликими криминальными группировками. Уровень преступности возрос до неимоверных 400%. Уступающие в численности и обессиленные правоохранительные органы применяют новую стратегию: напарником каждого полицейского становится усовершенствованная боевая модель андроида.
Джон Кеннекс — полицейский, который пережил одну из самых катастрофических атак на департамент полиции. Джон потерял ногу и теперь ее заменяет сложная синтетическая конструкция. Очнувшись после 17 месяцев пребывания в коме, он многое не может вспомнить, но точно помнит, что его напарника убили. Теперь с ним на службе робот DNR - почти человек, способный испытывать эмоции.-Качество видео: WEB-DLRip
Контейнер: MKV
Стандарт разрешения: 720p
Видео кодек: H.264
Аудио кодек: AC3
Видео: 3942 Кбит/сек; 1280*718 (16:9); в 23,976 кадра/сек; AVC; 0.179 Бит/(Пиксели*Кадры)
Аудио: Русский; 384 Кбит/сек; 48,0 КГц; 16 бит; 6 каналов; АС-3
Аудио #2: Английский; 384 Кбит/сек; 48,0 КГц; 16 бит; 6 каналов; АС-3
Cубтитры: отсутствуют
  • Пилот (Pilot)
  • Кожа (Skin)
  • Как слышно меня? (Are You Receiving?)
  • Бендс (The Bends)
  • Братья по крови (Blood Brothers)
  • Аритмия (Arrhythmia)
  • Саймон говорит (Simon Says)
  • Вы здесь (You Are Here)
  • Освобожденный (Unbound)
  • Восприятие (Perception)
  • Саботаж (Disrupt)
  • Смотрящий (Beholder)
  • Cоломенный человек (Straw Man)
Общее
Уникальный идентификатор : 241820836754177352997296796817042149200 (0xB5ECFFC2EE6621A99F0B979F97B78F50)
Формат : Matroska
Версия формата : Version 2
Размер файла : 1,53 Гбайт
Продолжительность : 45 м.
Общий поток : 4805 Кбит/сек
Дата кодирования : UTC 2013-11-19 14:54:26
Программа кодирования : mkvmerge v2.9.9 ('Tutu') built on Nov 25 2009 21:13:32
Библиотека кодирования : libebml v0.7.9 + libmatroska v0.8.1
Видео
Идентификатор : 1
Формат : AVC
Формат/Информация : Advanced Video Codec
Профиль формата : [email protected]
Параметр CABAC формата : Нет
Параметр ReFrames формата : 2 кадра
Идентификатор кодека : V_MPEG4/ISO/AVC
Продолжительность : 45 м.
Битрейт : 3942 Кбит/сек
Ширина : 1280 пикселей
Высота : 718 пикселей
Соотношение сторон : 16:9
Режим частоты кадров : Постоянный
Частота кадров : 23,976 кадра/сек
Цветовое пространство : YUV
Субдискретизация насыщенности : 4:2:0
Битовая глубина : 8 бит
Тип развёртки : Прогрессивная
Бит/(Пиксели*Кадры) : 0.179
Размер потока : 1,26 Гбайт (82%)
Язык : English
Default : Нет
Forced : Нет
Основные цвета : BT.709
Характеристики трансфера : BT.709
Коэффициенты матрицы : BT.709
Аудио #1
Идентификатор : 2
Формат : AC-3
Формат/Информация : Audio Coding 3
Расширение режима : CM (complete main)
Параметр Endianness формата : Big
Идентификатор кодека : A_AC3
Продолжительность : 45 м.
Вид битрейта : Постоянный
Битрейт : 384 Кбит/сек
Каналы : 6 каналов
Расположение каналов : Front: L C R, Side: L R, LFE
Частота : 48,0 КГц
Битовая глубина : 16 бит
Метод сжатия : С потерями
Размер потока : 125 Мбайт (8%)
Язык : Russian
Default : Да
Forced : Да
Аудио #2
Идентификатор : 3
Формат : AC-3
Формат/Информация : Audio Coding 3
Расширение режима : CM (complete main)
Параметр Endianness формата : Big
Идентификатор кодека : A_AC3
Продолжительность : 45 м.
Вид битрейта : Постоянный
Битрейт : 384 Кбит/сек
Каналы : 6 каналов
Расположение каналов : Front: L C R, Side: L R, LFE
Частота : 48,0 КГц
Битовая глубина : 16 бит
Метод сжатия : С потерями
Размер потока : 125 Мбайт (8%)
Язык : English
Default : Нет
Forced : Нет
Сериал "Почти человек / Almost Human" на треке Pirat.ca
Download / Скачать

Хотите скачать бесплатно? Зарегистрируйтесь на сайте (ссылка на регистрацию). Pirat.ca - самый быстрый торрент трекер в рунете!

Как скачивать  ·   Что такое торрент  ·   Рейтинг и ограничения



Последний раз редактировалось: UcrusPazzo (2014-03-05 11:11), всего редактировалось 14 раз(а)

Пост 20-Ноя-2013 12:27 (спустя 39 минут)

Топик был перенесен из форума Зарубежные сериалы (Трюм) в форум Сериалы в эфире
kugesan
 

UcrusPazzo ®

7669

Пост 20-Ноя-2013 22:49 (спустя 11 часов)

[Q] 

20.11.13 добавлена серия - 02. Кожа (Skin)

_________________
[Профиль]  [ЛС] 

UcrusPazzo ®

7669

Пост 30-Ноя-2013 12:47 (спустя 9 дней)

[Q] 

Добовлена 3 серия

_________________
[Профиль]  [ЛС] 

UcrusPazzo ®

7669

Пост 08-Дек-2013 01:22 (спустя 7 дней)

[Q] 

Добавлена 4 серия

_________________
[Профиль]  [ЛС] 

UcrusPazzo ®

7669

Пост 11-Дек-2013 17:58 (спустя 3 дня)

[Q] 

Добавлена 5 серия

_________________
[Профиль]  [ЛС] 

eevgenu45

Морской Волк

Пост 16-Дек-2013 19:46 (спустя 5 дней)

[Q] 

попробую посмотреть понравиться с удовольствием поддержу
[Профиль]  [ЛС] 

UcrusPazzo ®

7669

Пост 18-Дек-2013 19:45 (спустя 1 день 23 часа)

[Q] 

Добавлена 6 серия

_________________
[Профиль]  [ЛС] 

UcrusPazzo ®

7669

Пост 15-Янв-2014 16:23 (спустя 27 дней)

[Q] 

Добавлена 7 и 8 серия

_________________
[Профиль]  [ЛС] 

UcrusPazzo ®

7669

Пост 05-Фев-2014 12:03 (спустя 20 дней)

[Q] 

Добавлена 9 серия

_________________
[Профиль]  [ЛС] 

UcrusPazzo ®

7669

Пост 13-Фев-2014 11:55 (спустя 7 дней)

[Q] 

Добавлена 10 серия

_________________
[Профиль]  [ЛС] 

UcrusPazzo ®

7669

Пост 20-Фев-2014 21:52 (спустя 7 дней)

[Q] 

Добавлена 11 серия

_________________
[Профиль]  [ЛС] 

UcrusPazzo ®

7669

Пост 26-Фев-2014 01:17 (спустя 5 дней)

[Q] 

Добавлена 12 серия

_________________
[Профиль]  [ЛС] 

BraionServ1

Гроза морей

Пост 26-Фев-2014 11:43 (спустя 10 часов)

[Q] 

Плохо что Байбоко переводят неделю а так ничего
[Профиль]  [ЛС] 

UcrusPazzo ®

7669

Пост 05-Мар-2014 11:09 (спустя 6 дней)

[Q] 

Добавлена последняя 13 серия

_________________
[Профиль]  [ЛС] 

Пост 06-Мар-2014 12:51 (спустя 1 день 1 час)

Топик был перенесен из форума Сериалы в эфире в форум Зарубежные сериалы
kugesan
 

VictorD

Шкипер

66

Пост 07-Мар-2014 19:45 (спустя 2 дня 8 часов)

[Q] 

сериал класс! Мне понравился Автору респект!!! Лови бочку
[Профиль]  [ЛС] 
Показать сообщения:    
Ответить на тему

Текущее время: Сегодня 13:34

Часовой пояс: GMT + 4



Вы не можете начинать темы
Вы не можете отвечать на сообщения
Вы не можете редактировать свои сообщения
Вы не можете удалять свои сообщения
Вы не можете голосовать в опросах
Вы не можете прикреплять файлы к сообщениям
Вы не можете скачивать файлы

▼ Вниз