ML
     
  Уважаемый Гость!
Вы можете поддержать проект и зарегистрироваться у наших партнеров - онлайн-стратегия MyLands. При регистрации в игре Вы получите код, который сможете активировать после регистрации на pirat.ca и получить 1000 дублонов.

Ваш код:
ca44e9295b9b8527ba1c339c20494f70782efea6
 
     

Гримм / Grimm (Сезон: 3 / Серии: 1-22 из 22) (Терренс О’Хара / Terrence O'Hara, Стивен ДеПол / Steven DePaul, Норберто Барба / Norberto Barba) [2013-2014 г., Драма, Фэнтези, Ужасы, Детектив, WEB-DL, 720p] MVO + Original (Eng) (LostFilm)

Ответить на тему
 
Автор
Сообщение

Пост 21-Ноя-2013 00:08

[Q] 

UcrusPazzo

Гримм / Grimm«Not your usual suspects» -Производство: США, GK Productions, Hazy Mills Productions, Universal Television
Жанр: Драма, Фэнтези, Ужасы, Детектив
Год выпуска: 2013-2014 гг.
Продолжительность: 22 серии по ~00:46:18
Мировая премьера: 28 октября 2011
Российская премьера: 20 сентября 2012 (Первый канал)
Перевод: Профессиональный (многоголосый, закадровый) [LostFilm]
Оригинальный аудиопоток: английский-Режиссер: Терренс О’Хара / Terrence O'Hara, Стивен ДеПол / Steven DePaul, Норберто Барба / Norberto Barba
Сценаристы: Стивен Карпентер, Дэвид Гринуолт, Джим Кауф
Оператор: Корт Феи, Элиот Рокетт, Маршалл Адамс
Композитор: Ричард Марвин
Художник: Стивен Вулф, Майкл Вайли, Крэйг Стернс
Продюсеры: Дэвид Гринуолт, Джим Кауф, Шон Хейс
Монтаж: Крис Дж. Уиллингэм, Джордж Пилкинтон, Жак Илэйн Тоберен-В ролях: Дэйв Гвинтоли, Расселл Хорнсби, Битси Таллоч, Сайлас Уэйр Митчелл, Саша Ройз, Регги Ли, Клэр Коффи, Айанна Беркшир, Кейт Бёртон, Тим Бэгли и др.-Описание: Молодой детектив Ник Бёркхардт является наследником рода Гримм - охотников за нечистью, живущей в мире людей.
Все потомки Гриммов обладают ключевой способностью - они могут видеть истинную сущность злых тварей, под какой бы личиной они не скрывались.
Соратником Ника становится перевоспитавшийся "Потрошитель" - оборотень Эдди Монро, помогающий ему познавать таинства древней мифологии.-Качество видео: WEB-DL
Контейнер: MKV
Стандарт разрешения: 720p
Видео кодек: H.264
Аудио кодек: AC3
Видео: 4041 Кбит/сек; 1280*720 (16:9); в 29,970 кадра/сек; AVC; 0.146 Бит/(Пиксели*Кадры)
Аудио: Русский; 384 Кбит/сек; 48,0 КГц; 16 бит; 2 канала; АС-3
Аудио #2: Английский; 384 Кбит/сек; 48,0 КГц; 16 бит; 2 канала; АС-3
Cубтитры: отсутствуют
  • Неблагодарный мертвец (The Ungrateful Dead)
  • Посттравматический зомби-синдром (PTZD)
  • Блюдо, которое подают холодным (A Dish Best Served Cold)
  • На один раз (One Night Stand)
  • Кукуй (El Cucuy)
  • Сказки для наших малышей (Stories We Tell Our Young)
  • Хладнокровус (Cold Blooded)
  • Двенадцать дней Дрожьдества (Twelve Days of Krampus)
  • Красная угроза (Red Menace)
  • Глаза свидетеля (Eyes of the Beholder)
  • Хороший солдат (The Good Soldier)
  • Дикая охота (The Wild Hunt)
  • Откровение (Revelation)
  • Мама дорогая (Mommy Dearest)
  • Когда-то мы были богами (Once We Were Gods)
  • Шоу должно продолжаться (The Show Must Go On)
  • Синхроничность (Synchronicity)
  • Закон жертвы (The Law of Sacrifice)
  • Пришла Беда – отворяй ворота (Nobody Knows the Trubel I've Seen)
  • Моё прекрасное Существо (My Fair Wesen)
  • Наследие (The Inheritance)
  • Блондинка с амбициями (Blond Ambition)
Общее
Уникальный идентификатор : 247641740022946817509647882605998887859 (0xBA4E107347B6C73A8BA4066F5B2BD3B3)
Формат : Matroska
Версия формата : Version 2
Размер файла : 1,56 Гбайт
Продолжительность : 46 м.
Общий поток : 4809 Кбит/сек
Дата кодирования : UTC 2013-10-29 17:44:26
Программа кодирования : mkvmerge v4.2.0 ('No Talking') сборка от Jul 28 2010 18:38:23
Библиотека кодирования : libebml v1.0.0 + libmatroska v1.0.0
Видео
Идентификатор : 1
Формат : AVC
Формат/Информация : Advanced Video Codec
Профиль формата : [email protected]
Параметр CABAC формата : Да
Параметр ReFrames формата : 4 кадра
Идентификатор кодека : V_MPEG4/ISO/AVC
Продолжительность : 46 м.
Битрейт : 4041 Кбит/сек
Ширина : 1280 пикселей
Высота : 720 пикселей
Соотношение сторон : 16:9
Режим частоты кадров : Постоянный
Частота кадров : 29,970 кадров/сек
Цветовое пространство : YUV
Субдискретизация насыщенности : 4:2:0
Битовая глубина : 8 бит
Тип развёртки : Прогрессивная
Бит/(Пиксели*Кадры) : 0.146
Размер потока : 1,28 Гбайт (82%)
Библиотека кодирования : x264 core 112 r1834 a51816a
Настройки программы : cabac=1 / ref=1 / deblock=1:0:0 / analyse=0x3:0x113 / me=hex / subme=7 / psy=1 / psy_rd=1.00:0.00 / mixed_ref=0 / me_range=16 / chroma_me=1 / trellis=1 / 8x8dct=1 / cqm=0 / deadzone=21,11 / fast_pskip=1 / chroma_qp_offset=-2 / threads=6 / sliced_threads=0 / nr=0 / decimate=1 / interlaced=0 / constrained_intra=0 / bframes=3 / b_pyramid=2 / b_adapt=1 / b_bias=0 / direct=1 / weightb=1 / open_gop=0 / weightp=2 / keyint=250 / keyint_min=25 / scenecut=40 / intra_refresh=0 / rc_lookahead=40 / rc=2pass / mbtree=1 / bitrate=4041 / ratetol=1.0 / qcomp=0.60 / qpmin=0 / qpmax=51 / qpstep=4 / cplxblur=20.0 / qblur=0.5 / ip_ratio=1.40 / aq=1:1.00
Default : Да
Forced : Нет
Аудио #1
Идентификатор : 2
Формат : AC-3
Формат/Информация : Audio Coding 3
Расширение режима : CM (complete main)
Параметр Endianness формата : Big
Идентификатор кодека : A_AC3
Продолжительность : 46 м.
Вид битрейта : Постоянный
Битрейт : 384 Кбит/сек
Каналы : 2 канала
Расположение каналов : Front: L R
Частота : 48,0 КГц
Битовая глубина : 16 бит
Метод сжатия : С потерями
Размер потока : 127 Мбайт (8%)
Default : Да
Forced : Нет
Аудио #2
Идентификатор : 3
Формат : AC-3
Формат/Информация : Audio Coding 3
Расширение режима : CM (complete main)
Параметр Endianness формата : Big
Идентификатор кодека : A_AC3
Продолжительность : 46 м.
Вид битрейта : Постоянный
Битрейт : 384 Кбит/сек
Каналы : 2 канала
Расположение каналов : Front: L R
Частота : 48,0 КГц
Битовая глубина : 16 бит
Метод сжатия : С потерями
Размер потока : 127 Мбайт (8%)
Default : Нет
Forced : Нет
Сатурн, 2012 год - Лучший телесериал, созданный для телетрансляции
Сказки, мотивы которых используются в сериале: Красная Шапочка, Три медведя, Царица пчёл, Синяя борода, Гамельнский крысолов, Три поросёнка, Рапунцель, Джек и бобовый стебель, Храбрый портняжка, Гензель и Гретель, Дзёрогумо, Андрокл, Гениальный вор.
Сериал "Гримм / Grimm" на треке Pirat.ca
Download / Скачать

Хотите скачать бесплатно? Зарегистрируйтесь на сайте (ссылка на регистрацию). Pirat.ca - самый быстрый торрент трекер в рунете!

Как скачивать  ·   Что такое торрент  ·   Рейтинг и ограничения



Последний раз редактировалось: UcrusPazzo (2014-05-28 08:14), всего редактировалось 19 раз(а)

UcrusPazzo ®

7670

Пост 04-Дек-2013 10:18 (спустя 13 дней)

[Q] 

Добавлена 5 серия

_________________
[Профиль]  [ЛС] 

UcrusPazzo ®

7670

Пост 11-Дек-2013 18:10 (спустя 7 дней)

[Q] 

Добавлена 6 серия

_________________
[Профиль]  [ЛС] 

UcrusPazzo ®

7670

Пост 18-Дек-2013 11:00 (спустя 6 дней)

[Q] 

Добавлена 7 и 8 серия

_________________
[Профиль]  [ЛС] 

UcrusPazzo ®

7670

Пост 08-Янв-2014 10:46 (спустя 20 дней)

[Q] 

Добавлена 9 серия

_________________
[Профиль]  [ЛС] 

Sergejs44

Морской Волк

Пост 08-Янв-2014 13:29 (спустя 2 часа 43 минуты)

[Q] 

Сериал супер ! Всем смотреть .
[Профиль]  [ЛС] 

UcrusPazzo ®

7670

Пост 14-Янв-2014 23:45 (спустя 6 дней)

[Q] 

Добавлена 10 серия

_________________
[Профиль]  [ЛС] 

UcrusPazzo ®

7670

Пост 22-Янв-2014 11:22 (спустя 7 дней)

[Q] 

Добавлена 11 серия

_________________
[Профиль]  [ЛС] 

UcrusPazzo ®

7670

Пост 29-Янв-2014 18:33 (спустя 7 дней)

[Q] 

Добавлена 12 серия

_________________
[Профиль]  [ЛС] 

wolf.vi60

Лоцман

Пост 02-Фев-2014 12:44 (спустя 3 дня)

[Q] 

Отличный сериал!
Спасибо!!! Лови бочку
[Профиль]  [ЛС] 

MyrrocK

Лоцман

Пост 05-Фев-2014 12:52 (спустя 3 дня)

[Q] 

Когда следующая будет?
[Профиль]  [ЛС] 

UcrusPazzo ®

7670

Пост 05-Фев-2014 19:05 (спустя 6 часов)

[Q] 

MyrrocK, Как только, так сразу!

_________________
[Профиль]  [ЛС] 

demokrat13

Шкипер

Пост 12-Фев-2014 11:11 (спустя 6 дней)

[Q] 

Спасибо!!! Респект раздающему!!!! Заценим!!!!
[Профиль]  [ЛС] 

UcrusPazzo ®

7670

Пост 04-Мар-2014 10:46 (спустя 19 дней)

[Q] 

Добавлена 13 серия

_________________
[Профиль]  [ЛС] 

Region-89

Гроза морей

550

Пост 04-Мар-2014 17:46 (спустя 7 часов)

[Q] 

спасибо за серию! 32

_________________
[Профиль]  [ЛС] 

taganrog

Штурман

Пост 09-Мар-2014 16:37 (спустя 4 дня)

[Q] 

есть, хоть-бы приблизительное расписание выхода серий??
[Профиль]  [ЛС] 

UcrusPazzo ®

7670

Пост 13-Мар-2014 23:06 (спустя 4 дня)

[Q] 

Добавлена 14 серия

_________________
[Профиль]  [ЛС] 

UcrusPazzo ®

7670

Пост 25-Мар-2014 22:08 (спустя 11 дней)

[Q] 

Добавлена 15 серия

_________________
[Профиль]  [ЛС] 

UcrusPazzo ®

7670

Пост 27-Мар-2014 12:56 (спустя 1 день 14 часов)

[Q] 

Добавлена 16 серия

_________________
[Профиль]  [ЛС] 

UcrusPazzo ®

7670

Пост 10-Апр-2014 21:16 (спустя 14 дней)

[Q] 

Добавлена 17 серия

_________________
[Профиль]  [ЛС] 

UcrusPazzo ®

7670

Пост 18-Апр-2014 13:43 (спустя 7 дней)

[Q] 

Добавлена 18 серия

_________________
[Профиль]  [ЛС] 

UcrusPazzo ®

7670

Пост 02-Май-2014 14:02 (спустя 14 дней)

[Q] 

Добавлена 19 серия

_________________
[Профиль]  [ЛС] 

UcrusPazzo ®

7670

Пост 12-Май-2014 01:02 (спустя 9 дней)

[Q] 

Добавлена 20 серия

_________________
[Профиль]  [ЛС] 

UcrusPazzo ®

7670

Пост 28-Май-2014 08:15 (спустя 16 дней)

[Q] 

Добавлена 21 и 22 серия

_________________
[Профиль]  [ЛС] 

Пост 28-Май-2014 09:29 (спустя 1 час 14 минут)

Топик был перенесен из форума Сериалы в эфире в форум Зарубежные сериалы
kugesan
 

UcrusPazzo ®

7670

Пост 30-Авг-2015 13:51 (спустя 1 год 3 месяца)

[Q] 

Из-за нехватки места на диске, ушел с раздачи.
Оставил раздачу на группу Seed Aid

_________________
[Профиль]  [ЛС] 
Показать сообщения:    
Ответить на тему

Текущее время: Сегодня 16:16

Часовой пояс: GMT + 4



Вы не можете начинать темы
Вы не можете отвечать на сообщения
Вы не можете редактировать свои сообщения
Вы не можете удалять свои сообщения
Вы не можете голосовать в опросах
Вы не можете прикреплять файлы к сообщениям
Вы не можете скачивать файлы

▼ Вниз