ML
     
  Уважаемый Гость!
Вы можете поддержать проект и зарегистрироваться у наших партнеров - онлайн-стратегия MyLands. При регистрации в игре Вы получите код, который сможете активировать после регистрации на pirat.ca и получить 1000 дублонов.

Ваш код:
db0e0ad91548759ffeb9bb88bed405e1a4b3c165
 
     

Грошовые Ужасы / Страшные сказки / Penny Dreadful / Сезон: 2 / Полный / Серии: 10 из 10 (Хуан Антонио Байона / Juan Antonio Bayona, ...) [2015 г., ужасы, драма, HDTVRip] MVO (LostFilm)

Ответить на тему
 
Автор
Сообщение

Пост 23-Ноя-2013 22:37

[Q] 

kugesan

-Грошовые Ужасы / Страшные сказки / Penny Dreadful
«There is some thing within us all»
-- Производство: США, Ирландия, Великобритания
Жанр: ужасы, драма
Год выпуска: 2015 г.-Мировая премьера: 11 мая 2014
Российская премьера: 12 мая 2014-Озвучка: Студия
Перевод: Многоголосый закадровый, профессиональный-Режиссер: Хуан Антонио Байона / Juan Antonio Bayona, Коки Гидройч / Coky Giedroyc, Джеймс Хоуз / James Hawes, ...-В ролях: Тимоти Далтон, Ева Грин, Джош Хартнетт, Рори Киннер, Хелен МакКрори, Билли Пайпер, Гарри Тредэвэй, Рив Карни, Алан Армстронг, Рик Берн ...-Описание:
Викторианский Лондон. Здесь никогда не было безопасности и спокойствия. Горожане заняты исключительно повседневными делами, не замечая признаков грядущих изменений. Однако им следовало бы стать повнимательней, потому что на улицах британской столицы собирается нечисть самого разного толка, способная навести ужас на кого угодно. Со многими из представителей этой нечисти вы давно знакомы: тут вам и демонический юноша Дориан Грей из романа Оскара Уайльда, и многомудрый доктор Джекил вместе со своим альтер-эго мистером Хайдом, и немец Франкенштейн «под ручку» со своим чудовищным творением, и жаждущий крови великолепный граф Дракула из Трансильвании, а также его подручные-вампиры и другие, не менее зловещие сущности.
Начиная охоту за человеческими телами и душами, все они делят Лондон между собой. Люди боятся выходить из домов, а тёмные негодяи попросту развлекаются, не раздумывая о том, что рано или поздно должна прийти расплата за все их злодеяния. И вот об этой беде узнают охотники, всю свою жизнь посвятившие борьбе с нечистью. В числе положительных персонажей, разумеется, отметится и сам Ван Хельсинг.
Но и без главного персонажа сюжет не обходится. Им стал одиночка, приехавший из Америки — Итан Чэндлер. Его угораздило угодить в ловушку коварных вампиров и стать одержимым дьявольской красотой загадочной женщины-медиума Ванессы Айвз. В итоге жанр шоу определяется его авторами как «психосексуальный хоррор», а это звучит как нечто доселе совершенно неизвестное, новое и очень интересное.-Сезон: 2
Серии: 10 из 10 серий
Продолжительность: ~ 00:55:00 мин серия-
Качество видео: HDTVRip
Контейнер: AVI
Видео кодек: XviD
Аудио кодек: MP3
Видео: MPEG-4 Visual at 959 Кбит/сек: 720 x 400 (1.800) at 23.976 fps: 0.14 Бит/Пиксели
Аудио Rus: MPEG Audio at 192 Кбит/сек: 2 канала, 48,0 КГц |LostFilm|
Cубтитры: отсутствуют
- -
  • Сущий ад (Fresh Hell)
  • Язык Дьявола (Verbis Diablo)
  • Приходящие в ночи (The Nightcomers)
  • Духи злобы поднебесной (Evil Spirits in Heavenly Places)
  • Вверху — лишь купол синий (Above the Vaulted Sky)
  • Великие ужасы (Glorious Horrors)
  • Маленький скорпион (Little Scorpion)
  • Помни о смерти (Memento Mori)
  • Мой единственный враг — сам Ад (And Hell Itself My Only Foe)
  • И стали они врагами (And They Were Enemies)
-
Общее
Полное имя : E:\_Сериалы\_Сериалы\Грошовые ужасы\Penny Dreadful 2 - LostFilm.TV\Penny.Dreadful.S02E01.rus.LostFilm.TV.avi
Формат : AVI
Формат/Информация : Audio Video Interleave
Размер файла : 457 Мбайт
Продолжительность : 55 м.
Режим общего битрейта : Переменный
Общий поток : 1160 Кбит/сек
Программа кодирования : Nandub v1.0rc2
Библиотека кодирования : Nandub build 1853/release
Видео
Идентификатор : 0
Формат : MPEG-4 Visual
Профиль формата : Advanced [email protected]
Параметр BVOP формата : Нет
Параметр QPel формата : Нет
Параметр GMC формата : Без точки перехода
Параметр матрицы формата : Default (H.263)
Идентификатор кодека : XVID
Идентификатор кодека/Подсказка : XviD
Продолжительность : 55 м.
Битрейт : 959 Кбит/сек
Ширина : 720 пикселей
Высота : 400 пикселей
Соотношение сторон : 16:9
Частота кадров : 23,976 кадра/сек
Цветовое пространство : YUV
Субдискретизация насыщенности : 4:2:0
Битовая глубина : 8 бит
Тип развёртки : Прогрессивная
Метод сжатия : С потерями
Бит/(Пиксели*Кадры) : 0.139
Размер потока : 378 Мбайт (83%)
Библиотека кодирования : XviD 1.2.1 (UTC 2008-12-04)
Аудио
Идентификатор : 1
Формат : MPEG Audio
Версия формата : Version 1
Профиль формата : Layer 3
Режим : Joint stereo
Расширение режима : MS Stereo
Идентификатор кодека : 55
Идентификатор кодека/Подсказка : MP3
Продолжительность : 55 м.
Вид битрейта : Переменный
Битрейт : 192 Кбит/сек
Каналы : 2 канала
Частота : 48,0 КГц
Метод сжатия : С потерями
Размер потока : 74,0 Мбайт (16%)
Выравнивание : Соединение по промежуткам
Продолжительность промежутка : 24 мс. (0,58 видеокадр)
Время предзагрузки промежутка : 482 мс.
Библиотека кодирования : LAME3.97b
Настройки программы : -m j -V 4 -q 3 -lowpass 18.6 --abr 192
-
-Скриншоты:
-
-
1. Открыть торрент
2. Снять галки с тех файлов торрента, которые мы не хотим закачивать. Оставляем только на нужных нам файлах (файле).
3. Нажать О.К.
В клиенте utorrent
Инструкция
1) Открыть торрент

2) Снять галки с тех файлов торрента, которые мы не хотим закачивать:
* либо вручную, снимая с каждого файла галку( скрин №1)
* либо, нажав кнопку "Снять метки (Select None)", сняв сразу со всех файлов(скрин №2)
№1

№2

Оставляем только на нужных нам файлах (файле).

3)Нажать О.К
Добавлена десятая, заключительная, серия второго сезона
Download / Скачать

Хотите скачать бесплатно? Зарегистрируйтесь на сайте (ссылка на регистрацию). Pirat.ca - самый быстрый торрент трекер в рунете!

Как скачивать  ·   Что такое торрент  ·   Рейтинг и ограничения



Последний раз редактировалось: kugesan (2016-01-04 14:31), всего редактировалось 16 раз(а)

Region-89

Гроза морей

550

Пост 08-Май-2015 02:32 (спустя 1 год 5 месяцев)

[Q] 

Ева Грин - шикарна! rum

_________________
[Профиль]  [ЛС] 

kugesan ®

56719

Пост 08-Июл-2015 11:32 (спустя 2 месяца)

[Q] 

Добавлена десятая, заключительная, серия второго сезона

_________________

В мире две бесконечности: вселенная и человеческая глупость - Альберт Эйнштен
«Можно вытащить человека из грязи, но нельзя вытащить грязь из человека»!
[Профиль]  [ЛС] 

alex020327

Пост 08-Июл-2015 15:06 (спустя 3 часа)

[Q] 

Неплох сериал).Спасибо)
[Профиль]  [ЛС] 

Пост 08-Июл-2015 23:33 (спустя 8 часов)

Топик был перенесен из форума Сериалы в эфире в форум Зарубежные сериалы
Андря
 

alex198408

Морской Волк

Пост 05-Янв-2016 01:28 (спустя 5 месяцев 27 дней)

[Q] 

690239Неплох сериал).Спасибо)
Это разве сериал?
[Профиль]  [ЛС] 

kugesan ®

56719

Пост 05-Янв-2016 12:32 (спустя 11 часов)

[Q] 

alex198408, А по вашему мнению, что можно назвать сериалом?
Здесь 10 серий и это второй сезон, все признаки серила на лицо)))

_________________

В мире две бесконечности: вселенная и человеческая глупость - Альберт Эйнштен
«Можно вытащить человека из грязи, но нельзя вытащить грязь из человека»!
[Профиль]  [ЛС] 
Показать сообщения:    
Ответить на тему

Текущее время: Сегодня 08:10

Часовой пояс: GMT + 4



Вы не можете начинать темы
Вы не можете отвечать на сообщения
Вы не можете редактировать свои сообщения
Вы не можете удалять свои сообщения
Вы не можете голосовать в опросах
Вы не можете прикреплять файлы к сообщениям
Вы не можете скачивать файлы

▼ Вниз