ML
     
  Уважаемый Гость!
Вы можете поддержать проект и зарегистрироваться у наших партнеров - онлайн-стратегия MyLands. При регистрации в игре Вы получите код, который сможете активировать после регистрации на pirat.ca и получить 1000 дублонов.

Ваш код:
11f49771fdf057c9d51610e4a0925c3b46ddb655
 
     

Марко Поло / Marco Polo / Сезон: 1 / Полный / Серии: 10 из 10 (Дэвид Петрарка / David Petrarca, ...) [2014 г., приключения, драма, WEBRip] MVO (NewStudio) + Original (Eng)

Ответить на тему
 
Автор
Сообщение

Пост 24-Ноя-2013 19:57

[Q] 

kugesan

-Марко Поло / Marco Polo
«Worlds Will Collide»
-- Производство: США
Жанр: приключения, драма
Год выпуска: 2014 г.-Мировая премьера: 12 декабря 2014, ...-Релиз:
Перевод: Многоголосый закадровый, профессиональный
Оригинальный аудиопоток: английский-Перевод: Weirdie, Ptyza
Постер: Vortex-Режиссер: Дэвид Петрарка / David Petrarca, Алик Сахаров / Alik Sakharov, Хоаким Роннинг / Joachim Roenning, ...-В ролях:
Лоренцо Рикельми, Бенедикт Вонг, Жу Жу, Том Ву, Реми Хий, Рик Юн, Пьерфранческо Фавино, Оливия Ченг, Клаудия Ким, Ули Латукефу, Джоан Чэнь, Чин Хань, Амр Вакед, Амарсайхан Балжиннямын, Коррадо Инверницци, Махеш Джаду, Ерден Телемисов...-Описание:
Сюжет сериала основан на приключениях знаменитого исследователя Марко Поло в Китае в 13-м веке.-Сезон: 1
Серии: 10 из 10 серий
Продолжительность: ~ 00:51:00 мин серия-Качество видео: WEBRip
Контейнер: AVI
Видео кодек: XviD
Аудио кодек: MP3
Видео: MPEG-4 Visual at 1016 Кбит/сек: 624 x 312 (2.000) at 23.976 fps: 0.22 Бит/Пиксели
Аудио Rus: MPEG Audio at 128 Кбит/сек, 2 канала, 48,0 КГц |NewStudio|
Аудио Eng: MPEG Audio at 128 Кбит/сек: 2 канала, 48,0 КГц |Original|
Cубтитры: отсутствуют
- -
  • Странник (The Wayfarer)
  • Волк и Олень(The Wolf and the Deer)
  • Пир (Feast)
  • Четвёртый шаг (The Fourth Step)
  • Хашашин (Hashshashin)
  • Белая Луна (White Moon)
  • Перо на пергамент (The Scholar's Pen)
  • Фреска(Rendering)
  • Пленники (Prisoners)
  • Небесное и основное (The Heavenly and Primal)
-
Общее
Полное имя : E:\_Сериалы\_Сериалы\Марко Поло\Marco Polo.s01.NewStudio\Marco.Polo.s01e01.WEBRip.NewStudio.TV.avi
Формат : AVI
Формат/Информация : Audio Video Interleave
Размер файла : 471 Мбайт
Продолжительность : 51 м.
Общий поток : 1286 Кбит/сек
Программа кодирования : VirtualDubMod 1.5.10.2 (build 2540/release)
Библиотека кодирования : VirtualDubMod build 2540/release
Видео
Идентификатор : 0
Формат : MPEG-4 Visual
Профиль формата : Advanced [email protected]
Параметр BVOP формата : 2
Параметр QPel формата : Нет
Параметр GMC формата : Без точки перехода
Параметр матрицы формата : Default (H.263)
Режим смешивания : Сжатый битовый поток
Идентификатор кодека : XVID
Идентификатор кодека/Подсказка : XviD
Продолжительность : 51 м.
Битрейт : 1016 Кбит/сек
Ширина : 624 пикселя
Высота : 312 пикселей
Соотношение сторон : 2,000
Частота кадров : 23,976 кадра/сек
Цветовое пространство : YUV
Субдискретизация насыщенности : 4:2:0
Битовая глубина : 8 бит
Тип развёртки : Прогрессивная
Метод сжатия : С потерями
Бит/(Пиксели*Кадры) : 0.218
Размер потока : 372 Мбайт (79%)
Библиотека кодирования : XviD 65
Аудио #1
Идентификатор : 1
Формат : MPEG Audio
Версия формата : Version 1
Профиль формата : Layer 3
Режим : Joint stereo
Расширение режима : MS Stereo
Идентификатор кодека : 55
Идентификатор кодека/Подсказка : MP3
Продолжительность : 51 м.
Вид битрейта : Постоянный
Битрейт : 128 Кбит/сек
Каналы : 2 канала
Частота : 48,0 КГц
Метод сжатия : С потерями
Размер потока : 46,9 Мбайт (10%)
Выравнивание : Соединение по промежуткам
Продолжительность промежутка : 42 мс. (1,00 видеокадр)
Время предзагрузки промежутка : 504 мс.
Аудио #2
Идентификатор : 2
Формат : MPEG Audio
Версия формата : Version 1
Профиль формата : Layer 3
Режим : Joint stereo
Расширение режима : MS Stereo
Идентификатор кодека : 55
Идентификатор кодека/Подсказка : MP3
Продолжительность : 51 м.
Вид битрейта : Постоянный
Битрейт : 128 Кбит/сек
Каналы : 2 канала
Частота : 48,0 КГц
Метод сжатия : С потерями
Размер потока : 46,9 Мбайт (10%)
Выравнивание : Разделение по промежуткам
Продолжительность промежутка : 42 мс. (1,00 видеокадр)
Время предзагрузки промежутка : 500 мс.
Библиотека кодирования : LAME3.99.5
-
-Скриншоты:
-
-
1. Открыть торрент
2. Снять галки с тех файлов торрента, которые мы не хотим закачивать. Оставляем только на нужных нам файлах (файле).
3. Нажать О.К.
В клиенте utorrent
Инструкция
1) Открыть торрент

2) Снять галки с тех файлов торрента, которые мы не хотим закачивать:
* либо вручную, снимая с каждого файла галку( скрин №1)
* либо, нажав кнопку "Снять метки (Select None)", сняв сразу со всех файлов(скрин №2)
№1

№2

Оставляем только на нужных нам файлах (файле).

3)Нажать О.К
-Добавлена десятая, заключительная, серия первого сезона
Download / Скачать

Хотите скачать бесплатно? Зарегистрируйтесь на сайте (ссылка на регистрацию). Pirat.ca - самый быстрый торрент трекер в рунете!

Как скачивать  ·   Что такое торрент  ·   Рейтинг и ограничения



Последний раз редактировалось: kugesan (2014-12-18 22:57), всего редактировалось 7 раз(а)

Пост 16-Дек-2014 02:50 (спустя 1 год)

Топик был перенесен из форума Зарубежные сериалы (Трюм) в форум Сериалы в эфире
Андря
 

Ahzool

Корсар

Пост 16-Дек-2014 13:34 (спустя 1 год)

[Q] 

kugesan Лови бочку aa останусь на раздаче)

_________________
Si non es occupatus quid natum moriendo occupatus es,beauty creatur vultus.
[Профиль]  [ЛС] 

kugesan ®

56710

Пост 16-Дек-2014 13:52 (спустя 17 минут)

[Q] 

Ahzool, aa az

_________________

В мире две бесконечности: вселенная и человеческая глупость - Альберт Эйнштен
«Можно вытащить человека из грязи, но нельзя вытащить грязь из человека»!
[Профиль]  [ЛС] 

jeck123

Морской Волк

Пост 16-Дек-2014 19:43 (спустя 5 часов)

[Q] 

посмотримс что да как спс те kugesan
[Профиль]  [ЛС] 

mishanya___

21470

Пост 16-Дек-2014 19:48 (спустя 4 минуты)

[Q] 

kugesan, az
занимательный сериал ay
[Профиль]  [ЛС] 

kugesan ®

56710

Пост 16-Дек-2014 22:53 (спустя 3 часа)

[Q] 

Приятного просмотра!!!

_________________

В мире две бесконечности: вселенная и человеческая глупость - Альберт Эйнштен
«Можно вытащить человека из грязи, но нельзя вытащить грязь из человека»!
[Профиль]  [ЛС] 

kugesan ®

56710

Пост 18-Дек-2014 22:57 (спустя 2 дня)

[Q] 

Добавлена десятая, заключительная, серия первого сезона

_________________

В мире две бесконечности: вселенная и человеческая глупость - Альберт Эйнштен
«Можно вытащить человека из грязи, но нельзя вытащить грязь из человека»!
[Профиль]  [ЛС] 

odyssey123

Флибустьер

Пост 19-Дек-2014 11:31 (спустя 12 часов)

[Q] 

Спасибо!!!
Посмотрим...
[Профиль]  [ЛС] 

Пост 19-Дек-2014 12:07 (спустя 36 минут)

Топик был перенесен из форума Сериалы в эфире в форум Зарубежные сериалы
Андря
 

янка-сан

Гроза морей

Пост 18-Дек-2015 20:26 (спустя 11 месяцев)

[Q] 

спасибо. хороший сериал Лови бочку
[Профиль]  [ЛС] 
Показать сообщения:    
Ответить на тему

Текущее время: Сегодня 03:09

Часовой пояс: GMT + 4



Вы не можете начинать темы
Вы не можете отвечать на сообщения
Вы не можете редактировать свои сообщения
Вы не можете удалять свои сообщения
Вы не можете голосовать в опросах
Вы не можете прикреплять файлы к сообщениям
Вы не можете скачивать файлы

▼ Вниз