ML
     
  Уважаемый Гость!
Вы можете поддержать проект и зарегистрироваться у наших партнеров - онлайн-стратегия MyLands. При регистрации в игре Вы получите код, который сможете активировать после регистрации на pirat.ca и получить 1000 дублонов.

Ваш код:
6f9ab67d502902cc72a06c406977ddb589b7f39d
 
     

Однажды в сказке / Once Upon a Time / Сезон: 3 / Полный / Серии: 22 из 22 (Дин Уайт / Dean White ...) [2013 г., фэнтези, мелодрама, приключения, ..., WEB-DLRip] Dub (NewStudio) + Original (Eng)

Ответить на тему
 
Автор
Сообщение

Пост 06-Дек-2013 20:12

[Q] 

kugesan

-Однажды в сказке / Once Upon a Time
«Magic is coming»
-- Производство: США, ABC
Жанр: фэнтези, мелодрама, приключения, ...
Год выпуска: 2013 г.-Мировая премьера: 23 октября 2011, ...
Российская премьера: 9 февраля 2012-Перевод: Профессиональный (полное дублирование)
Озвучка: Fox
Оригинальный аудиопоток: английский
Подготовка релиза: |NewStudio|-Режиссер: Дин Уайт / Dean White, Ральф Хемекер / Ralph Hemecker, Дэвид Соломон / David Solomon ...-В ролях: Дженнифер Моррисон, Джиннифер Гудвин, Лана Паррия, Джошуа Даллас, Джаред Гилмор, Роберт Карлайл, Рафаэль Сбардж, Меган Ори, Эмили де Рэвин, Ли Аренберг ...
Роли дублировали: Мария Цветкова-Овсянникова, Ирина Горячева, Елена Шульман, Андрей Кузнецов, Константин Ефимов ...-Описание: Сюжет фэнтези разворачивается в двух мирах — современном и сказочном. Жизнь 28-летней Эммы Свон меняется, когда ее 10-летний сын Генри, от которого она отказалась много лет назад, находит Эмму и объявляет, что она является дочерью Прекрасного Принца и Белоснежки. Само собой разумеется, у мальчишки нет никаких сомнений, что параллельно нашему существует альтернативный сказочный мир — город Сторибрук, в котором в итоге оказывается Эмма. Постепенно героиня привязывается к необычному мальчику и странному городу, жители которого «забыли», кем они были в прошлом. А все из-за проклятия Злой Королевы (по совместительству приемной матери Генри), с помощью которого колдунья остановила время в сказочной стране. Однако стоит протянуть руку — и сказка оживет. Эпическая битва за будущее двух миров начинается, но, чтобы одержать победу, Эмме придется принять свою судьбу…-Сезон: 3
Серии: 22 из 22 серий
Продолжительность: ~ 00:42:00 мин серия-Качество видео: WEB-DLRip
Контейнер: AVI
Видео кодек: XviD
Аудио кодек: MP3
Видео: MPEG-4 Visual at 1356 Кбит/сек: 720 x 400 (1.800) at 23.976 fps: 0.196 Бит/Пиксели
Аудио Rus: MPEG Audio at 128 Кбит/сек, 2 канала, 48,0 КГц |Fox|
Аудио Eng: MPEG Audio at 128 Кбит/сек, 2 канала, 48,0 КГц |Original|
Cубтитры: отсутствуют
-
-
  • Сердце истинно верующего (The Heart of the Truest Believer)
  • Заблудшая (Lost Girl)
  • Вполне обыкновенная фея (Quite a Common Fairy)
  • Вредные привычки (Nasty Habits)
  • Хорошие манеры (Good Form)
  • Ариэль (Ariel)
  • Темная лощина (Dark Hollow)
  • Думай о хорошем (Think Lovely Thoughts)
  • Спасти Генри (Save Henry)
  • Новый Неверленд (The New Neverland)
  • Домой (Going Home)
  • Серенада Нью-Йорка (New York City Serenade)
  • Охота на ведьм (Witch Hunt)
  • Башня (The Tower)
  • Нелегко быть зеленым (It's Not Easy Being Green)
  • Веселый Роджер (The Jolly Roger)
  • Кровотечение (Bleeding Through)
  • Любопытная вещь (A Curious Thing)
  • Канзас (Kansas)
  • Снежные Заносы (Snow Drifts)
  • В гостях хорошо, а дома лучше (There's No Place Like Home)
Код:
Общее
Полное имя                               : E:\_Сериалы\Однажды в сказке\Once Upon a Time-3 NewStudio\Once.Upon.a.Time.s03e01.WEBDLRip.NewStudio.TV.avi
Формат                                   : AVI
Формат/Информация                        : Audio Video Interleave
Размер файла                             : 499 Мбайт
Продолжительность                        : 42 м.
Общий поток                              : 1626 Кбит/сек
Программа кодирования                    : VirtualDubMod 1.5.10.2 (build 2540/release)
Библиотека кодирования                   : VirtualDubMod build 2540/release
Видео
Идентификатор                            : 0
Формат                                   : MPEG-4 Visual
Профиль формата                          : Advanced [email protected]
Параметр BVOP формата                    : 2
Параметр QPel формата                    : Нет
Параметр GMC формата                     : Без точки перехода
Параметр матрицы формата                 : Default (MPEG)
Идентификатор кодека                     : XVID
Идентификатор кодека/Подсказка           : XviD
Продолжительность                        : 42 м.
Битрейт                                  : 1356 Кбит/сек
Ширина                                   : 720 пикселей
Высота                                   : 400 пикселей
Соотношение сторон                       : 16:9
Частота кадров                           : 23,976 кадра/сек
Цветовое пространство                    : YUV
Субдискретизация насыщенности            : 4:2:0
Битовая глубина                          : 8 бит
Тип развёртки                            : Прогрессивная
Метод сжатия                             : С потерями
Бит/(Пиксели*Кадры)                      : 0.196
Размер потока                            : 416 Мбайт (83%)
Библиотека кодирования                   : XviD 64
Аудио #1
Идентификатор                            : 1
Формат                                   : MPEG Audio
Версия формата                           : Version 1
Профиль формата                          : Layer 3
Режим                                    : Joint stereo
Расширение режима                        : MS Stereo
Идентификатор кодека                     : 55
Идентификатор кодека/Подсказка           : MP3
Продолжительность                        : 42 м.
Вид битрейта                             : Постоянный
Битрейт                                  : 128 Кбит/сек
Каналы                                   : 2 канала
Частота                                  : 48,0 КГц
Метод сжатия                             : С потерями
Размер потока                            : 39,3 Мбайт (8%)
Выравнивание                             : Соединение по промежуткам
Продолжительность промежутка             : 42  мс. (1,00 видеокадр)
Время предзагрузки промежутка            : 504  мс.
Аудио #2
Идентификатор                            : 2
Формат                                   : MPEG Audio
Версия формата                           : Version 1
Профиль формата                          : Layer 3
Режим                                    : Joint stereo
Расширение режима                        : MS Stereo
Идентификатор кодека                     : 55
Идентификатор кодека/Подсказка           : MP3
Продолжительность                        : 42 м.
Вид битрейта                             : Постоянный
Битрейт                                  : 128 Кбит/сек
Каналы                                   : 2 канала
Частота                                  : 48,0 КГц
Метод сжатия                             : С потерями
Размер потока                            : 39,3 Мбайт (8%)
Выравнивание                             : Соединение по промежуткам
Продолжительность промежутка             : 42  мс. (1,00 видеокадр)
Время предзагрузки промежутка            : 504  мс.
-Добавлена двадцать вторая, заключительная, серия третьего сезона
Download / Скачать

Хотите скачать бесплатно? Зарегистрируйтесь на сайте (ссылка на регистрацию). Pirat.ca - самый быстрый торрент трекер в рунете!

Как скачивать  ·   Что такое торрент  ·   Рейтинг и ограничения



Последний раз редактировалось: kugesan (2014-07-14 20:24), всего редактировалось 21 раз(а)

kloctuk

3302

Пост 24-Янв-2014 09:39 (спустя 1 месяц 17 дней)

[Q] 

482328Добавлена шестая серия
Они были на каникулах, да? И есть информация - с какой частотой будут появляться серии?

_________________
-выстрели еще разок. -зачем? - его душа еще танцует...
[Профиль]  [ЛС] 

kugesan ®

56639

Пост 24-Янв-2014 17:53 (спустя 8 часов)

[Q] 

Выпущено уже 11 серий в оригинале, вся загвоздка в озвучивании, NewStudio тоже была на каникулах, сейчас потихоньку начинают все раскачиваться...

_________________

В мире две бесконечности: вселенная и человеческая глупость - Альберт Эйнштен
«Можно вытащить человека из грязи, но нельзя вытащить грязь из человека»!
[Профиль]  [ЛС] 

Region-89

Гроза морей

550

Пост 01-Мар-2014 12:48 (спустя 1 месяц 4 дня)

[Q] 

спасибо за сказку! 32

_________________
[Профиль]  [ЛС] 

Hastalavista

Лоцман

Пост 01-Мар-2014 17:01 (спустя 4 часа)

[Q] 

в 720 где достать?
[Профиль]  [ЛС] 

printoff

Пост 25-Июн-2014 08:55 (спустя 3 месяца 23 дня)

[Q] 

Спасибо
Супер!
[Профиль]  [ЛС] 

Angelastra

Штурман

Пост 29-Июн-2014 00:13 (спустя 3 дня)

[Q] 

сутки на закачке и не 1 серии не скачал((( есть сиды или нет(((
[Профиль]  [ЛС] 

kugesan ®

56639

Пост 29-Июн-2014 12:57 (спустя 12 часов)

[Q] 

Попробую еще и через uTorrent раздавать...

_________________

В мире две бесконечности: вселенная и человеческая глупость - Альберт Эйнштен
«Можно вытащить человека из грязи, но нельзя вытащить грязь из человека»!
[Профиль]  [ЛС] 

kugesan ®

56639

Пост 13-Июл-2014 20:39 (спустя 14 дней)

[Q] 

Добавлена двадцать вторая, заключительная, серия третьего сезона

_________________

В мире две бесконечности: вселенная и человеческая глупость - Альберт Эйнштен
«Можно вытащить человека из грязи, но нельзя вытащить грязь из человека»!
[Профиль]  [ЛС] 

kugesan ®

56639

Пост 14-Июл-2014 20:25 (спустя 23 часа)

[Q] 

Убрал дубликат первой серии.

_________________

В мире две бесконечности: вселенная и человеческая глупость - Альберт Эйнштен
«Можно вытащить человека из грязи, но нельзя вытащить грязь из человека»!
[Профиль]  [ЛС] 

alex denver71

Флибустьер

Пост 28-Янв-2015 16:32 (спустя 6 месяцев 13 дней)

[Q] 

Автору респект!!! Сериал отменный!!! Не знаю кому как,а мне перевод сериала в дубляже нравится!!!
[Профиль]  [ЛС] 

vladimir_ai

Шкипер

Пост 19-Май-2015 23:23 (спустя 3 месяца 22 дня)

[Q] 

И шо только для барышни не запишешь...
Раздающим спасибо. Выходит, присоединюсь к раздаче.
[Профиль]  [ЛС] 

Serg759

Корсар

Пост 04-Июл-2015 13:29 (спустя 1 месяц 15 дней)

[Q] 

Автору респект!!!
[Профиль]  [ЛС] 
Показать сообщения:    
Ответить на тему

Текущее время: Сегодня 16:32

Часовой пояс: GMT + 4



Вы не можете начинать темы
Вы не можете отвечать на сообщения
Вы не можете редактировать свои сообщения
Вы не можете удалять свои сообщения
Вы не можете голосовать в опросах
Вы не можете прикреплять файлы к сообщениям
Вы не можете скачивать файлы

▼ Вниз