ML
     
  Уважаемый Гость!
Вы можете поддержать проект и зарегистрироваться у наших партнеров - онлайн-стратегия MyLands. При регистрации в игре Вы получите код, который сможете активировать после регистрации на pirat.ca и получить 1000 дублонов.

Ваш код:
11f49771fdf057c9d51610e4a0925c3b46ddb655
 
     

Победившая боль / Крепкий орешек Джейн / Painkiller Jane / Сезон: 1 / Серии: 1-22 (William Waring, David Tennant... / Уильям Уоринг, Дэвид Теннант...) [2007 г., Фантастика, боевик, HDTVRip] MVO (ТВ3)

Ответить на тему
 
Автор
Сообщение

Пост 08-Дек-2013 12:22

[Q] 

vovanig

-Победившая боль / Крепкий орешек Джейн / Painkiller Jane-«Hard to resist. Harder to kill»-- Производство: США, Канада
Жанр: Фантастика, боевик
Год выпуска: 2007 г.
Продолжительность: ~00:43:04
Мировая премьера: 13 апреля 2007
Российская премьера: 26 января 2008
Перевод: Профессиональный (многоголосый, закадровый) [ТВ3]
Режиссер: William Waring, David Tennant... / Уильям Уоринг, Дэвид Теннант...-В ролях:
Кристанна Локен, Ной Дэнби, Стивен Лобо, Шон О. Робертс, Роб Стюарт, Натаниель Дево, Элейна Каланж, Мелани Папалиа, Джон Рирдон. Мэтт Девере..-Описание:
Экс-агента по борьбе с наркотиками Джейн Васко вербует тайная правительственная организация, занимающаяся отловом нейров — людей со сврехчеловеческими способностями. В первом же рейде Васко обнаруживает такие возможности и в себе: Джейн оказывается неуязвимой, хотя и продолжает чувствовать боль. Регенерация тканей делает ее невероятно сильной, но Васко продолжает работать на организацию, попутно ища первопричины своего дара.
- -Качество видео: HDTVRip
Контейнер: AVI
Видео кодек: XviD
Аудио кодек: MP3
Видео: 624x352 (1.77:1), 23.976 fps, XviD MPEG-4 ~995 kbps avg, 0.19 bit/pixel
Аудио #1 RUS: 48 kHz, MPEG Layer 3, 2 ch, ~128.00 kbps avg
Аудио #2 ENG: 48 kHz, MPEG Layer 3, 2 ch, ~128.00 kbps avg

Cубтитры: отсутствуют-
01 - Pilot
02 - Toy Soldiers
03 - Piece of Mind
04 - Catch Me If You Can
05 - Nothing To Fear But Fear Itself
06 - Breakdown
07 - Higher Court
08 - Friendly Fire
09 - Trial by Fire
10 - Portraits of Lauren Gray
11 - Ghost in the Machine
12 - Something Nasty in the Neighborhood
13 - The League
14 - The Amazing Howiegue
15 - The Healer
16 - Thanks for the Memories
17 - Playback
18 - Jane 113
19 - What Lies Beneath
20 - The Beast of Bolnar
21 - Reflections
22 - Endgame
-
Общее
Полное имя : D:\ТВИДЕО\Painkiller Jane _[pirat.ca]\Painkiller.Jane.1x01.Pilot..avi
Формат : AVI
Формат/Информация : Audio Video Interleave
Размер файла : 391 Мбайт
Продолжительность : 43 м.
Режим общего битрейта : Переменный
Общий поток : 1270 Кбит/сек
Программа кодирования : VirtualDubMod 1.5.10.2 (build 2542/release)
Библиотека кодирования : VirtualDubMod build 2542/release
Видео
Идентификатор : 0
Формат : MPEG-4 Visual
Профиль формата : Advanced [email protected]
Параметр BVOP формата : 1
Параметр QPel формата : Нет
Параметр GMC формата : Без точки перехода
Параметр матрицы формата : Default (H.263)
Режим смешивания : Сжатый битовый поток
Идентификатор кодека : XVID
Идентификатор кодека/Подсказка : XviD
Продолжительность : 43 м.
Битрейт : 998 Кбит/сек
Ширина : 624 пикселя
Высота : 352 пикселя
Соотношение сторон : 16:9
Частота кадров : 23,976 кадра/сек
Цветовое пространство : YUV
Субдискретизация насыщенности : 4:2:0
Битовая глубина : 8 бит
Тип развёртки : Прогрессивная
Метод сжатия : С потерями
Бит/(Пиксели*Кадры) : 0.189
Размер потока : 307 Мбайт (79%)
Библиотека кодирования : XviD 1.2.0SMP (UTC 2006-01-08)
Аудио #1
Идентификатор : 1
Формат : MPEG Audio
Версия формата : Version 1
Профиль формата : Layer 3
Режим : Joint stereo
Расширение режима : MS Stereo
Идентификатор кодека : 55
Идентификатор кодека/Подсказка : MP3
Продолжительность : 43 м.
Вид битрейта : Постоянный
Битрейт : 128 Кбит/сек
Каналы : 2 канала
Частота : 48,0 КГц
Метод сжатия : С потерями
Размер потока : 39,4 Мбайт (10%)
Выравнивание : Соединение по промежуткам
Продолжительность промежутка : 42 мс. (1,00 видеокадр)
Время предзагрузки промежутка : 504 мс.
Аудио #2
Идентификатор : 2
Формат : MPEG Audio
Версия формата : Version 1
Профиль формата : Layer 3
Режим : Joint stereo
Расширение режима : MS Stereo
Идентификатор кодека : 55
Идентификатор кодека/Подсказка : MP3
Продолжительность : 43 м.
Вид битрейта : Переменный
Битрейт : 128 Кбит/сек
Каналы : 2 канала
Частота : 48,0 КГц
Метод сжатия : С потерями
Размер потока : 39,2 Мбайт (10%)
Выравнивание : Соединение по промежуткам
Продолжительность промежутка : 24 мс. (0,58 видеокадр)
Время предзагрузки промежутка : 492 мс.
Download / Скачать

Хотите скачать бесплатно? Зарегистрируйтесь на сайте (ссылка на регистрацию). Pirat.ca - самый быстрый торрент трекер в рунете!

Как скачивать  ·   Что такое торрент  ·   Рейтинг и ограничения

julikam

Гроза морей

Пост 15-Дек-2013 20:57 (спустя 7 дней)

[Q] 

На любителя

_________________

Не может быть отремонтировано только то, что не сломано.
[Профиль]  [ЛС] 
Показать сообщения:    
Ответить на тему

Текущее время: Сегодня 03:07

Часовой пояс: GMT + 4



Вы не можете начинать темы
Вы не можете отвечать на сообщения
Вы не можете редактировать свои сообщения
Вы не можете удалять свои сообщения
Вы не можете голосовать в опросах
Вы не можете прикреплять файлы к сообщениям
Вы не можете скачивать файлы

▼ Вниз