ML
     
  Уважаемый Гость!
Вы можете поддержать проект и зарегистрироваться у наших партнеров - онлайн-стратегия MyLands. При регистрации в игре Вы получите код, который сможете активировать после регистрации на pirat.ca и получить 1000 дублонов.

Ваш код:
822959f93c00d34653763d5bbf9ee9a7134af98a
 
     

Ведьмы Ист-Энда / Witches of East End (Сезон 1, полный, 10 серий) (Джон Скотт / John Scott) [2013г., фэнтези, драма, ..., WEB-DLRip] MVO (NewStudio)

Ответить на тему
 
Автор
Сообщение

Пост 09-Дек-2013 18:40

[Q] 

kugesan

Ведьмы Ист-Энда
Witches of East End
- Русское название: Ведьмы Ист-Энда
Оригинальное название: Witches of East End
Страна: США
Год выпуска: 2013
Жанр: фэнтези, драма, ...-Озвучка: Студия NewStudio
Перевод: Многоголосый закадровый, профессиональный
Автор перевода: Weirdie-Премьера (мир): 6 октября 2013-Режиссер: Джон Скотт / John Scott, Аллан Аркуш / Allan Arkush, Фред Гербер / Fred Gerber
В главных ролях: Джулия Ормонд, Медкен Эмик, Дженна Деван-Татум, Рейчел Бостон, Дэниэл ДиТомассо, Эрик Винтер, Джейсон Уинстон Джордж, Вирджиния Мэдсен, Тия Сиркар, Энтони Лемке ...-Описание фильма:
История о могущественной ведьме Джоанне и её двух взрослых дочерях, которым предстоит продолжить дело своей матери.-Сезон: 1
Серии: 10 из 10 серий
Продолжительность: ~ 00:43:00 мин серия-Качество видео: WEB-DLRip
Формат: AVI
Видеокодек: XviD
Аудиокодек: Mp3
Видео: MPEG-4 Visual at 1352 Кбит/сек, 720 x 400 (1.800) at 23.976 fps, 0.196 Бит/Пиксели
Аудио Rus: MPEG Audio at 128 Кбит/сек, 2 канала, 48,0 КГц |NewStudio|
Аудио Eng: MPEG Audio at 128 Кбит/сек, 2 канала, 48,0 КГц |Original|
- -
  • Pilot / Пилот
  • Покойся с миром, Мерилин Фенвик (Marilyn Fenwick, R.I.P.)
  • Теперь я ведьма (Today I Am a Witch)
  • Пара мужчин на удачу (A Few Good Talismen)
  • Электрик-авеню (Electric Avenue)
  • Потеншин ноктис (Potentia Noctis)
  • Непогребенный (Unburied)
  • Змеиный Глаз (Snake Eyes)
  • Палящим Укрепленная (A Parching Imbued)
  • Ах, Какая мира (Oh, What a World!)
-
Код:
Общее
Полное имя                               : E:\_Сериалы\Ведьмы Ист-Энда\Witches of East End - 1 NewStudio\Witches.of.East.End.s01e01.WEBDLRip.NewStudio.TV.avi
Формат                                   : AVI
Формат/Информация                        : Audio Video Interleave
Размер файла                             : 499 Мбайт
Продолжительность                        : 43 м.
Общий поток                              : 1622 Кбит/сек
Программа кодирования                    : VirtualDubMod 1.5.10.2 (build 2540/release)
Библиотека кодирования                   : VirtualDubMod build 2540/release
Видео
Идентификатор                            : 0
Формат                                   : MPEG-4 Visual
Профиль формата                          : Advanced [email protected]
Параметр BVOP формата                    : 2
Параметр QPel формата                    : Нет
Параметр GMC формата                     : Без точки перехода
Параметр матрицы формата                 : Default (MPEG)
Идентификатор кодека                     : XVID
Идентификатор кодека/Подсказка           : XviD
Продолжительность                        : 43 м.
Битрейт                                  : 1352 Кбит/сек
Ширина                                   : 720 пикселей
Высота                                   : 400 пикселей
Соотношение сторон                       : 16:9
Частота кадров                           : 23,976 кадра/сек
Цветовое пространство                    : YUV
Субдискретизация насыщенности            : 4:2:0
Битовая глубина                          : 8 бит
Тип развёртки                            : Прогрессивная
Метод сжатия                             : С потерями
Бит/(Пиксели*Кадры)                      : 0.196
Размер потока                            : 416 Мбайт (83%)
Библиотека кодирования                   : XviD 64
Аудио #1
Идентификатор                            : 1
Формат                                   : MPEG Audio
Версия формата                           : Version 1
Профиль формата                          : Layer 3
Режим                                    : Joint stereo
Идентификатор кодека                     : 55
Идентификатор кодека/Подсказка           : MP3
Продолжительность                        : 43 м.
Вид битрейта                             : Постоянный
Битрейт                                  : 128 Кбит/сек
Каналы                                   : 2 канала
Частота                                  : 48,0 КГц
Метод сжатия                             : С потерями
Размер потока                            : 39,4 Мбайт (8%)
Выравнивание                             : Соединение по промежуткам
Продолжительность промежутка             : 42  мс. (1,00 видеокадр)
Время предзагрузки промежутка            : 504  мс.
Аудио #2
Идентификатор                            : 2
Формат                                   : MPEG Audio
Версия формата                           : Version 1
Профиль формата                          : Layer 3
Режим                                    : Joint stereo
Идентификатор кодека                     : 55
Идентификатор кодека/Подсказка           : MP3
Продолжительность                        : 43 м.
Вид битрейта                             : Постоянный
Битрейт                                  : 128 Кбит/сек
Каналы                                   : 2 канала
Частота                                  : 48,0 КГц
Метод сжатия                             : С потерями
Размер потока                            : 39,4 Мбайт (8%)
Выравнивание                             : Соединение по промежуткам
Продолжительность промежутка             : 42  мс. (1,00 видеокадр)
Время предзагрузки промежутка            : 504  мс.
Библиотека кодирования                   : LAME3.90.3
-
-Скриншоты:
-
-Добавлена десятая, заключительная, серия первого сезона
Download / Скачать

Хотите скачать бесплатно? Зарегистрируйтесь на сайте (ссылка на регистрацию). Pirat.ca - самый быстрый торрент трекер в рунете!

Как скачивать  ·   Что такое торрент  ·   Рейтинг и ограничения



Последний раз редактировалось: kugesan (2013-12-30 18:39), всего редактировалось 12 раз(а)

Doctor-ZLO

Гроза морей

438

Пост 13-Дек-2013 18:56 (спустя 4 дня)

[Q] 

типа зачарованных ,пародия)))

_________________
[Профиль]  [ЛС] 

kugesan ®

56690

Пост 30-Дек-2013 18:42 (спустя 16 дней)

[Q] 

Добавлена десятая, заключительная, серия первого сезона

_________________

В мире две бесконечности: вселенная и человеческая глупость - Альберт Эйнштен
«Можно вытащить человека из грязи, но нельзя вытащить грязь из человека»!
[Профиль]  [ЛС] 

Пост 30-Дек-2013 19:56 (спустя 1 час 14 минут)

Топик был перенесен из форума Сериалы в эфире в форум Зарубежные сериалы
erchine
 
Показать сообщения:    
Ответить на тему

Текущее время: Сегодня 05:57

Часовой пояс: GMT + 4



Вы не можете начинать темы
Вы не можете отвечать на сообщения
Вы не можете редактировать свои сообщения
Вы не можете удалять свои сообщения
Вы не можете голосовать в опросах
Вы не можете прикреплять файлы к сообщениям
Вы не можете скачивать файлы

▼ Вниз