ML
     
  Уважаемый Гость!
Вы можете поддержать проект и зарегистрироваться у наших партнеров - онлайн-стратегия MyLands. При регистрации в игре Вы получите код, который сможете активировать после регистрации на pirat.ca и получить 1000 дублонов.

Ваш код:
500cb7bd8d2cec9a8aba647a87ce41c4b76f06bd
 
     

Смертельная битва: Наследие / Mortal Kombat: Legacy (Сезон: 1 / полный / 9 серий) (Кевин Танчароэн / Kevin Tancharoen) [2011 г., фэнтези, боевик, триллер, криминал, WEB-DLRip] MVO (LostFilm)

Ответить на тему
 
Автор
Сообщение

Пост 18-Дек-2013 21:08

[Q] 

kugesan

Смертельная битва: Наследие
Mortal Kombat: Legacy
- Русское название: Смертельная битва: Наследие
Оригинальное название: Mortal Kombat: Legacy
Страна: США, Канада
Год выпуска: 2013
Жанр: фэнтези, боевик, триллер, криминал-Озвучка: Студия LostFilm
Перевод: Многоголосый закадровый, профессиональный-Премьера (мир): 11 апреля 2011, ...-Режиссер: Кевин Танчароэн / Kevin Tancharoen
В главных ролях: Джонсон Фэн, Каспер Ван Дин, Йен Энтони Дэйл, Саманта Джо, Ким Ду Нгуйен, Даррен Шахлави, Эндрю Чин, Морисса Танчароэн, Алекс Паунович, Майкл Джей Уайт ...-Описание фильма:
Сериал является приквелом к кинофильмам из серии "Смертельная битва".
Первый сезон сериала состоит из девяти короткометражных фильмов, рассказывающих о том, как каждый из героев попал на турнир «Смертельная битва».-Сезон: 1
Серии: 9 из 9 серий
Продолжительность: ~ 00:12:00 мин серия-Качество видео: WEB-DLRip
Формат: AVI
Видеокодек: XviD
Аудиокодек: Mp3
Видео: MPEG-4 Visual at 1462 Кбит/сек, 720 x 400 (1.800) at 23.976 fps, 0.212 Бит/Пиксели
Аудио: MPEG Audio at 192 Кбит/сек, 2 канала, 48,0 КГц
- -Сериал "Смертельная битва: Наследие / Mortal Kombat: Legacy" на треке Pirat.ca-
  • Джакс, Соня и Кано. Часть 1 (Jax, Sonya and Kano: Part 1)
  • Джакс, Соня и Кано. Часть 2 (Jax, Sonya and Kano: Part 2)
  • Джонни Кейдж (Johnny Cage)
  • Китана и Милена. Часть 1 (Kitana & Mileena: Part 1)
  • Китана и Милена. Часть 2 (Kitana & Mileena: Part 2)
  • Рэйден (Raiden)
  • Скорпион и Саб Зиро. Часть 1 (Scorpion and Sub Zero: Part 1)
  • Скорпион и Саб Зиро. Часть 2 (Scorpion and Sub Zero: Part 2)
  • Сайрекс и Сектор (Cyrax and Sektor)
-
Код:
Общее
Полное имя                               : E:\_Сериалы\Смертельная битва Наследие\Mortal Kombat Legacy - 1 LostFilm\Mortal.Kombat.Legacy.S01E01.rus.LostFilm.TV.avi
Формат                                   : AVI
Формат/Информация                        : Audio Video Interleave
Размер файла                             : 149 Мбайт
Продолжительность                        : 12 м.
Режим общего битрейта                    : Переменный
Общий поток                              : 1662 Кбит/сек
Программа кодирования                    : Nandub v1.0rc2
Библиотека кодирования                   : Nandub build 1853/release
Видео
Идентификатор                            : 0
Формат                                   : MPEG-4 Visual
Профиль формата                          : [email protected]
Параметр BVOP формата                    : Нет
Параметр QPel формата                    : Нет
Параметр GMC формата                     : Без точки перехода
Параметр матрицы формата                 : Default (H.263)
Идентификатор кодека                     : XVID
Идентификатор кодека/Подсказка           : XviD
Продолжительность                        : 12 м.
Битрейт                                  : 1462 Кбит/сек
Ширина                                   : 720 пикселей
Высота                                   : 400 пикселей
Соотношение сторон                       : 16:9
Частота кадров                           : 23,976 кадра/сек
Цветовое пространство                    : YUV
Субдискретизация насыщенности            : 4:2:0
Битовая глубина                          : 8 бит
Тип развёртки                            : Прогрессивная
Метод сжатия                             : С потерями
Бит/(Пиксели*Кадры)                      : 0.212
Размер потока                            : 131 Мбайт (88%)
Библиотека кодирования                   : XviD 1.2.1 (UTC 2008-12-04)
Аудио
Идентификатор                            : 1
Формат                                   : MPEG Audio
Версия формата                           : Version 1
Профиль формата                          : Layer 3
Режим                                    : Joint stereo
Расширение режима                        : MS Stereo
Идентификатор кодека                     : 55
Идентификатор кодека/Подсказка           : MP3
Продолжительность                        : 12 м.
Вид битрейта                             : Переменный
Битрейт                                  : 192 Кбит/сек
Каналы                                   : 2 канала
Частота                                  : 48,0 КГц
Метод сжатия                             : С потерями
Размер потока                            : 16,8 Мбайт (11%)
Выравнивание                             : Соединение по промежуткам
Продолжительность промежутка             : 24  мс. (0,58 видеокадр)
Время предзагрузки промежутка            : 512  мс.
Библиотека кодирования                   : LAME3.97b
Настройки программы                      : -m j -V 4 -q 3 -lowpass 18.6 --abr 192
-
-Скриншоты:
-
-Добавлена девятая, заключительная, серия первого сезонаРаботаю за
Download / Скачать

Хотите скачать бесплатно? Зарегистрируйтесь на сайте (ссылка на регистрацию). Pirat.ca - самый быстрый торрент трекер в рунете!

Как скачивать  ·   Что такое торрент  ·   Рейтинг и ограничения



Последний раз редактировалось: kugesan (2013-12-26 14:24), всего редактировалось 13 раз(а)

Барсик

Морской Волк

11

Пост 18-Дек-2013 23:25 (спустя 2 часа 16 минут)

[Q] 

блин да соне то за пятьдесят Лови бочку
[Профиль]  [ЛС] 

kugesan ®

56664

Пост 26-Дек-2013 14:30 (спустя 7 дней)

[Q] 

Добавлена девятая, заключительная, серия первого сезона

_________________

В мире две бесконечности: вселенная и человеческая глупость - Альберт Эйнштен
«Можно вытащить человека из грязи, но нельзя вытащить грязь из человека»!
[Профиль]  [ЛС] 

Gfr

Штурман

Пост 30-Дек-2013 03:49 (спустя 3 дня)

[Q] 

не впечатлила первая серия...
согласен с первым пиратом, Соня не та...

_________________
Мятная медуза - магазинчик милых вещей ручной работы.
http://mintjellyfish.com.ua
[Профиль]  [ЛС] 

CHARLI2236

1094

Пост 28-Мар-2014 15:14 (спустя 2 месяца 29 дней)

[Q] 

подключусь AntiZip 04

_________________
[Профиль]  [ЛС] 

kugesan ®

56664

Пост 28-Мар-2014 16:55 (спустя 1 час 41 минута)

[Q] 

CHARLI2236, aa az

_________________

В мире две бесконечности: вселенная и человеческая глупость - Альберт Эйнштен
«Можно вытащить человека из грязи, но нельзя вытащить грязь из человека»!
[Профиль]  [ЛС] 
Показать сообщения:    
Ответить на тему

Текущее время: Сегодня 01:48

Часовой пояс: GMT + 4



Вы не можете начинать темы
Вы не можете отвечать на сообщения
Вы не можете редактировать свои сообщения
Вы не можете удалять свои сообщения
Вы не можете голосовать в опросах
Вы не можете прикреплять файлы к сообщениям
Вы не можете скачивать файлы

▼ Вниз