ML
     
  Уважаемый Гость!
Вы можете поддержать проект и зарегистрироваться у наших партнеров - онлайн-стратегия MyLands. При регистрации в игре Вы получите код, который сможете активировать после регистрации на pirat.ca и получить 1000 дублонов.

Ваш код:
c3360d664ceb84802c84b88ed062a5d134e2ba97
 
     

Смертельная битва: Наследие / Mortal Kombat: Legacy (Сезон: 2 / полный / 10 серий) (Кевин Танчароэн / Kevin Tancharoen) [2011 г., фэнтези, боевик, триллер, криминал, WEB-DLRip] DVO (Gramalant)

Ответить на тему
 
Автор
Сообщение

Пост 26-Дек-2013 15:17

[Q] 

kugesan

Смертельная битва: Наследие
Mortal Kombat: Legacy
- Русское название: Смертельная битва: Наследие
Оригинальное название: Mortal Kombat: Legacy
Страна: США, Канада
Год выпуска: 2013
Жанр: фэнтези, боевик, триллер, криминал-Озвучка: Студия Gramalant
Перевод: Любительский (двуголосый, закадровый)-Премьера (мир): 11 апреля 2011, ...-Режиссер: Кевин Танчароэн / Kevin Tancharoen
В главных ролях: Джонсон Фэн, Каспер Ван Дин, Йен Энтони Дэйл, Саманта Джо, Ким Ду Нгуйен, Даррен Шахлави, Эндрю Чин, Морисса Танчароэн, Алекс Паунович, Майкл Джей Уайт ...-Описание фильма:
Сериал является приквелом к кинофильмам из серии "Смертельная битва".
Во втором сезоне будет также продолжен рассказ о предшествующих событиях, после чего все события будут объединены в одну историю, посвященную событиям на самом Турнире.-Сезон: 2
Серии: 10 из 10 серий
Продолжительность: ~ 00:10:00 мин серия-Качество видео: WEB-DLRip
Формат: AVI
Видеокодек: XviD
Аудиокодек: AC-3
Видео: MPEG-4 Visual at 1216 Кбит/сек: 720 x 304 (2.368) at 23.976 fps, 0.232 Бит/Пиксели
Аудио: AC-3 at 192 Кбит/сек: 2 канала, 48,0 КГц
-Присутствует ненормативная лексика!- -Сериал "Смертельная битва: Наследие / Mortal Kombat: Legacy" на треке Pirat.ca-
  • Episode #2.1
  • Episode #2.2
  • Episode #2.3
  • Episode #2.4
  • Episode #2.5
  • Episode #2.6
  • Episode #2.7
  • Episode #2.8
  • Episode #2.9
  • Episode #2.10
-
Код:
Общее
Полное имя                               : E:\uTorDown\uTorrent\Mortal Kombat Legacy-2 Gramalant\Mortal.Kombat.Legacy.s02e01.Gramalant.avi
Формат                                   : AVI
Формат/Информация                        : Audio Video Interleave
Размер файла                             : 103 Мбайт
Продолжительность                        : 10 м.
Общий поток                              : 1418 Кбит/сек
Программа кодирования                    : VirtualDubMod 1.5.10.2 (build 2540/release)
Библиотека кодирования                   : VirtualDubMod build 2540/release
Видео
Идентификатор                            : 0
Формат                                   : MPEG-4 Visual
Профиль формата                          : Advanced [email protected]
Параметр BVOP формата                    : 1
Параметр QPel формата                    : Нет
Параметр GMC формата                     : Без точки перехода
Параметр матрицы формата                 : Выборочная
Идентификатор кодека                     : XVID
Идентификатор кодека/Подсказка           : XviD
Продолжительность                        : 10 м.
Битрейт                                  : 1216 Кбит/сек
Ширина                                   : 720 пикселей
Высота                                   : 304 пикселя
Соотношение сторон                       : 2,35:1
Частота кадров                           : 23,976 кадра/сек
Цветовое пространство                    : YUV
Субдискретизация насыщенности            : 4:2:0
Битовая глубина                          : 8 бит
Тип развёртки                            : Прогрессивная
Метод сжатия                             : С потерями
Бит/(Пиксели*Кадры)                      : 0.232
Размер потока                            : 88,2 Мбайт (86%)
Библиотека кодирования                   : XviD 73
Аудио
Идентификатор                            : 1
Формат                                   : AC-3
Формат/Информация                        : Audio Coding 3
Расширение режима                        : CM (complete main)
Параметр Endianness формата              : Big
Идентификатор кодека                     : 2000
Продолжительность                        : 10 м.
Вид битрейта                             : Постоянный
Битрейт                                  : 192 Кбит/сек
Каналы                                   : 2 канала
Расположение каналов                     : Front: L R
Частота                                  : 48,0 КГц
Битовая глубина                          : 16 бит
Метод сжатия                             : С потерями
Размер потока                            : 13,9 Мбайт (14%)
Выравнивание                             : Разделение по промежуткам
Продолжительность промежутка             : 42  мс. (1,00 видеокадр)
Время предзагрузки промежутка            : 500  мс.
-
-Скриншоты:
-
-
-Второй сезонРаботаю за
Download / Скачать

Хотите скачать бесплатно? Зарегистрируйтесь на сайте (ссылка на регистрацию). Pirat.ca - самый быстрый торрент трекер в рунете!

Как скачивать  ·   Что такое торрент  ·   Рейтинг и ограничения



Последний раз редактировалось: kugesan (2013-12-29 19:03), всего редактировалось 2 раз(а)

zhiiizhiiik

Лоцман

Пост 27-Дек-2013 14:29 (спустя 23 часа)

[Q] 

Прикольно спасибо заценим )
[Профиль]  [ЛС] 

kugesan ®

56720

Пост 27-Дек-2013 14:31 (спустя 2 минуты)

[Q] 

Приятного просмотра!

_________________

В мире две бесконечности: вселенная и человеческая глупость - Альберт Эйнштен
«Можно вытащить человека из грязи, но нельзя вытащить грязь из человека»!
[Профиль]  [ЛС] 

CHARLI2236

1098

Пост 28-Мар-2014 15:14 (спустя 3 месяца 1 день)

[Q] 

подключусь AntiZip 05

_________________
[Профиль]  [ЛС] 

kugesan ®

56720

Пост 28-Мар-2014 16:55 (спустя 1 час 40 минут)

[Q] 

CHARLI2236, aa az

_________________

В мире две бесконечности: вселенная и человеческая глупость - Альберт Эйнштен
«Можно вытащить человека из грязи, но нельзя вытащить грязь из человека»!
[Профиль]  [ЛС] 
Показать сообщения:    
Ответить на тему

Текущее время: Сегодня 10:06

Часовой пояс: GMT + 4



Вы не можете начинать темы
Вы не можете отвечать на сообщения
Вы не можете редактировать свои сообщения
Вы не можете удалять свои сообщения
Вы не можете голосовать в опросах
Вы не можете прикреплять файлы к сообщениям
Вы не можете скачивать файлы

▼ Вниз