ML
     
  Уважаемый Гость!
Вы можете поддержать проект и зарегистрироваться у наших партнеров - онлайн-стратегия MyLands. При регистрации в игре Вы получите код, который сможете активировать после регистрации на pirat.ca и получить 1000 дублонов.

Ваш код:
8dcb839cf1b47e56d6dc42d17f26b3e4822e9aee
 
     

Шерлок / Sherlock (Сезон 3, приквел) (Пол МакГиган / Paul McGuiga, ...) [2013 г., триллер, драма, криминал, детектив, ... WEB-DLRip] MVO (AlexFilm)

Ответить на тему
 
Автор
Сообщение

Пост 27-Дек-2013 23:36

[Q] 

kugesan

Шерлок / Sherlock
«A new sleuth for the 21st Century»
- Русское название: Шерлок
Оригинальное название: Sherlock
Страна: Великобритания
Год выпуска: 2013
Жанр: фантастика, боевик, драма, ...-Перевод: Многоголосый закадровый, профессиональный
Релиз группы: AlexFilm
Озвучка: Евгения Тихонова, Михаил Суслов, Владимир Курдов, Константин Погодаев
Монтаж и сведение звука: Михаил Шорыгин
Автор перевода: Ольга Галайда
Постер: Андрей Шапал-Премьера (мир): 25 июля 2010, ...
Премьера (РФ): 18 сентября 2010
Релиз на DVD: 1 февраля 2011, «Флагман-Трейд», ...
Релиз на Blu-Ray: 23 июня 2011, «Флагман-Трейд», ...-Режиссер: Пол МакГиган / Paul McGuiga, Коки Гидройч / Coky Giedroyc, Эрос Лин / Euros Lyn ...
В главных ролях: Карл Урбан, Майкл Или, Минка Келли, Майкл Ирби, Макензи Крук, Лили Тейлор, Андрей Ковски, Лиэнн Адачи, Джейсон Асунсьон, Ёсиэ Бэнкрофт, Джо Смит, Кэролайн Мэтьюз, Джейм Каллика, Элла Томас, Андрей Ковски ...
Роли дублировали: Александр Головчанский, Василий Зотов, Андрей Бархударов, Елена Соловьева, Светлана Старикова ...-Описание фильма:
Мини-серия, предваряющая третий сезон британского сериала «Шерлок».
В нём рассказывается о том, как главные герои сериала — Шерлок Холмс и Джон Ватсон — жили два года после событий последнего эпизода второго сезона.
События разворачиваются в наши дни. Он прошел Афганистан, остался инвалидом. По возвращении в родные края встречается с загадочным, но своеобразным гениальным человеком. Тот в поиске соседа по квартире. Лондон, 2010 год. Происходят необъяснимые убийства. Скотланд-Ярд без понятия, за что хвататься. Существует лишь один человек, который в силах разрешить проблемы и найти ответы на сложные вопросы.-Сезон: 3
Продолжительность: ~ 00:07:00 мин серия-Качество видео: WEB-DLRip
Формат: AVI
Видеокодек: XviD
Аудиокодек: AC-3
Видео: MPEG-4 Visual at 1414 Кбит/сек: 720 x 400 (1.800) at 25.000 fps, 0.196 Бит/Пиксели
Аудио Rus: AC-3 at 192 Кбит/сек: 2 канала, 48,0 КГц |AlexFilm|
Аудио Eng: AC-3 at 192 Кбит/сек: 2 канала, 48,0 КГц |Original|
Субтитры: Присутствуют
Формат: ASS
- --
Код:
Общее
Полное имя                               : E:\_Сериалы\Шерлок\Sherlock - Many Happy Returns (AlexFilm)\Sherlock.s03e00.Many.Happy.Returns.Rus.Eng.AlexFilm.avi
Формат                                   : AVI
Формат/Информация                        : Audio Video Interleave
Размер файла                             : 93,3 Мбайт
Продолжительность                        : 7 м. 11 с.
Общий поток                              : 1812 Кбит/сек
Название фильма                          : Sherlock - Many Happy Returns @ AlexFilm
Программа кодирования                    : VirtualDubMod 1.5.10.2 (build 2542/release)
Библиотека кодирования                   : VirtualDubMod build 2542/release
Видео
Идентификатор                            : 0
Формат                                   : MPEG-4 Visual
Профиль формата                          : Advanced [email protected]
Параметр BVOP формата                    : 1
Параметр QPel формата                    : Нет
Параметр GMC формата                     : Без точки перехода
Параметр матрицы формата                 : Default (MPEG)
Идентификатор кодека                     : XVID
Идентификатор кодека/Подсказка           : XviD
Продолжительность                        : 7 м. 11 с.
Битрейт                                  : 1414 Кбит/сек
Ширина                                   : 720 пикселей
Высота                                   : 400 пикселей
Соотношение сторон                       : 16:9
Частота кадров                           : 25,000 кадров/сек
Цветовое пространство                    : YUV
Субдискретизация насыщенности            : 4:2:0
Битовая глубина                          : 8 бит
Тип развёртки                            : Прогрессивная
Метод сжатия                             : С потерями
Бит/(Пиксели*Кадры)                      : 0.196
Размер потока                            : 72,8 Мбайт (78%)
Библиотека кодирования                   : XviD 1.2.1 (UTC 2008-12-04)
Аудио #1
Идентификатор                            : 1
Формат                                   : AC-3
Формат/Информация                        : Audio Coding 3
Расширение режима                        : CM (complete main)
Параметр Endianness формата              : Big
Идентификатор кодека                     : 2000
Продолжительность                        : 7 м. 11 с.
Вид битрейта                             : Постоянный
Битрейт                                  : 192 Кбит/сек
Каналы                                   : 2 канала
Расположение каналов                     : Front: L R
Частота                                  : 48,0 КГц
Битовая глубина                          : 16 бит
Метод сжатия                             : С потерями
Размер потока                            : 9,89 Мбайт (11%)
Выравнивание                             : Разделение по промежуткам
Продолжительность промежутка             : 40  мс. (1,00 видеокадр)
Время предзагрузки промежутка            : 500  мс.
Заголовок                                : Russian (AlexFilm)
Аудио #2
Идентификатор                            : 2
Формат                                   : AC-3
Формат/Информация                        : Audio Coding 3
Расширение режима                        : CM (complete main)
Параметр Endianness формата              : Big
Идентификатор кодека                     : 2000
Продолжительность                        : 7 м. 11 с.
Вид битрейта                             : Постоянный
Битрейт                                  : 192 Кбит/сек
Каналы                                   : 2 канала
Расположение каналов                     : Front: L R
Частота                                  : 48,0 КГц
Битовая глубина                          : 16 бит
Метод сжатия                             : С потерями
Размер потока                            : 9,89 Мбайт (11%)
Выравнивание                             : Разделение по промежуткам
Продолжительность промежутка             : 40  мс. (1,00 видеокадр)
Время предзагрузки промежутка            : 500  мс.
Заголовок                                : English
-
-Скриншоты:
-Добавлен приквел к третьему сезону
Download / Скачать

Хотите скачать бесплатно? Зарегистрируйтесь на сайте (ссылка на регистрацию). Pirat.ca - самый быстрый торрент трекер в рунете!

Как скачивать  ·   Что такое торрент  ·   Рейтинг и ограничения



Последний раз редактировалось: kugesan (2014-04-29 12:03), всего редактировалось 2 раз(а)

Пост 28-Дек-2013 00:07 (спустя 31 минута)

Топик был перенесен из форума Зарубежные сериалы (Трюм) в форум Сериалы в эфире
erchine
 

shyrik21

Морской Волк

Пост 28-Дек-2013 01:42 (спустя 2 часа 6 минут)

[Q] 

Так выпуск серий этого года или как?
Добавлено спустя 41 секунда:
Веть год 2010
[Профиль]  [ЛС] 

kugesan ®

56718

Пост 28-Дек-2013 09:53 (спустя 8 часов)

[Q] 

shyrik21, Это приквел к третьему сезону.
В 2010 году показали первый сезон, третий начнется в январе 2014 года, сейчас приквел выпуска2013 года...

_________________

В мире две бесконечности: вселенная и человеческая глупость - Альберт Эйнштен
«Можно вытащить человека из грязи, но нельзя вытащить грязь из человека»!
[Профиль]  [ЛС] 

Айк

Штурман

Пост 01-Янв-2014 18:32 (спустя 4 дня)

[Q] 

Случайно этот приквел увидел, спасибо что выложили, так бы и не знал что новый сезон выходит, клевый сериал.
[Профиль]  [ЛС] 
Показать сообщения:    
Ответить на тему

Текущее время: Сегодня 04:18

Часовой пояс: GMT + 4



Вы не можете начинать темы
Вы не можете отвечать на сообщения
Вы не можете редактировать свои сообщения
Вы не можете удалять свои сообщения
Вы не можете голосовать в опросах
Вы не можете прикреплять файлы к сообщениям
Вы не можете скачивать файлы

▼ Вниз