ML
     
  Уважаемый Гость!
Вы можете поддержать проект и зарегистрироваться у наших партнеров - онлайн-стратегия MyLands. При регистрации в игре Вы получите код, который сможете активировать после регистрации на pirat.ca и получить 1000 дублонов.

Ваш код:
c3360d664ceb84802c84b88ed062a5d134e2ba97
 
     

Шерлок / Sherlock (Сезон 3, приквел) (Пол МакГиган / Paul McGuiga, ...) [2013 г., триллер, драма, криминал, детектив, ... WEB-DLRip 720p] MVO (AlexFilm)

Ответить на тему
 
Автор
Сообщение

Пост 27-Дек-2013 23:57

[Q] 

kugesan

Шерлок / Sherlock
«A new sleuth for the 21st Century»
- Русское название: Шерлок
Оригинальное название: Sherlock
Страна: Великобритания, "Hartswood Films", "BBC Wales", "Masterpiece Theatre"
Год выпуска: 2013
Жанр: фантастика, боевик, драма, ...-Перевод: Многоголосый закадровый, профессиональный
Релиз группы: AlexFilm
Озвучка: Евгения Тихонова, Михаил Суслов, Владимир Курдов, Константин Погодаев
Монтаж и сведение звука: Михаил Шорыгин
Автор перевода: Ольга Галайда
Постер: Андрей Шапал-Премьера (мир): 25 июля 2010, ...
Премьера (РФ): 18 сентября 2010
Релиз на DVD: 1 февраля 2011, «Флагман-Трейд», ...
Релиз на Blu-Ray: 23 июня 2011, «Флагман-Трейд», ...-Режиссер: Пол МакГиган / Paul McGuiga, Коки Гидройч / Coky Giedroyc, Эрос Лин / Euros Lyn ...
В главных ролях: Карл Урбан, Майкл Или, Минка Келли, Майкл Ирби, Макензи Крук, Лили Тейлор, Андрей Ковски, Лиэнн Адачи, Джейсон Асунсьон, Ёсиэ Бэнкрофт, Джо Смит, Кэролайн Мэтьюз, Джейм Каллика, Элла Томас, Андрей Ковски ...
Роли дублировали: Александр Головчанский, Василий Зотов, Андрей Бархударов, Елена Соловьева, Светлана Старикова ...-Описание фильма:
Мини-серия, предваряющая третий сезон британского сериала «Шерлок».
В нём рассказывается о том, как главные герои сериала — Шерлок Холмс и Джон Ватсон — жили два года после событий последнего эпизода второго сезона.
События разворачиваются в наши дни. Он прошел Афганистан, остался инвалидом. По возвращении в родные края встречается с загадочным, но своеобразным гениальным человеком. Тот в поиске соседа по квартире. Лондон, 2010 год. Происходят необъяснимые убийства. Скотланд-Ярд без понятия, за что хвататься. Существует лишь один человек, который в силах разрешить проблемы и найти ответы на сложные вопросы.-Сезон: 3
Продолжительность: ~ 00:07:00 мин серия-Качество видео: WEB-DLRip
Формат: MKV
Стандарт разрешения: 720р
Видеокодек: x264
Аудиокодек: AC-3
Видео: AVC at 3500 Кбит/сек: 1280 x 720 (1.778) at 25.000 fps, 0.152 Бит/Пиксели
Аудио Rus: AAC-3 at 192 Кбит/сек: 2 канала, 48,0 КГц |AlexFilm|
Аудио Eng: AAC-3 at 192 Кбит/сек: 2 канала, 48,0 КГц |Original|
Субтитры: Присутствуют (русские, английские)
Формат: ASS
- --
Код:
Общее
Уникальный идентификатор                 : 217354574032462375225460105125820520284 (0xA384F7E0671EA14E9D3DC800E122575C)
Полное имя                               : E:\_Сериалы\Шерлок\Sherlock 3(720)AlexFilm\Sherlock.s03e00.Many.Happy.Returns.720p.Rus.Eng.AlexFilm.mkv
Формат                                   : Matroska
Версия формата                           : Version 2
Размер файла                             : 200 Мбайт
Продолжительность                        : 7 м. 12 с.
Общий поток                              : 3893 Кбит/сек
Название фильма                          : Sherlock - Many Happy Returns @ AlexFilm
Дата кодирования                         : UTC 2013-12-26 21:56:08
Программа кодирования                    : mkvmerge v5.4.0 ('Piper') built on Mar 10 2012 13:34:39
Библиотека кодирования                   : libebml v1.2.3 + libmatroska v1.3.0
Attachment                               : Yes / Yes
Видео
Идентификатор                            : 1
Формат                                   : AVC
Формат/Информация                        : Advanced Video Codec
Профиль формата                          : [email protected]
Параметр CABAC формата                   : Да
Параметр ReFrames формата                : 9 кадров
Идентификатор кодека                     : V_MPEG4/ISO/AVC
Продолжительность                        : 7 м. 12 с.
Битрейт                                  : 3500 Кбит/сек
Ширина                                   : 1280 пикселей
Высота                                   : 720 пикселей
Соотношение сторон                       : 16:9
Режим частоты кадров                     : Постоянный
Частота кадров                           : 25,000 кадров/сек
Цветовое пространство                    : YUV
Субдискретизация насыщенности            : 4:2:0
Битовая глубина                          : 8 бит
Тип развёртки                            : Прогрессивная
Бит/(Пиксели*Кадры)                      : 0.152
Размер потока                            : 177 Мбайт (88%)
Библиотека кодирования                   : x264 core 138 r2358 9e941d1
Настройки программы                      : cabac=1 / ref=9 / deblock=1:-3:-3 / analyse=0x3:0x113 / me=umh / subme=10 / psy=1 / psy_rd=1.00:0.20 / mixed_ref=1 / me_range=32 / chroma_me=1 / trellis=2 / 8x8dct=1 / cqm=0 / deadzone=21,11 / fast_pskip=0 / chroma_qp_offset=-3 / threads=6 / lookahead_threads=1 / sliced_threads=0 / nr=0 / decimate=1 / interlaced=0 / bluray_compat=0 / constrained_intra=0 / bframes=8 / b_pyramid=2 / b_adapt=2 / b_bias=0 / direct=3 / weightb=1 / open_gop=0 / weightp=2 / keyint=250 / keyint_min=25 / scenecut=40 / intra_refresh=0 / rc_lookahead=60 / rc=2pass / mbtree=1 / bitrate=3500 / ratetol=1.0 / qcomp=0.60 / qpmin=0 / qpmax=69 / qpstep=4 / cplxblur=20.0 / qblur=0.5 / ip_ratio=1.40 / aq=1:1.00
Язык                                     : English
Default                                  : Да
Forced                                   : Нет
Аудио #1
Идентификатор                            : 2
Формат                                   : AC-3
Формат/Информация                        : Audio Coding 3
Расширение режима                        : CM (complete main)
Параметр Endianness формата              : Big
Идентификатор кодека                     : A_AC3
Продолжительность                        : 7 м. 12 с.
Вид битрейта                             : Постоянный
Битрейт                                  : 192 Кбит/сек
Каналы                                   : 2 канала
Расположение каналов                     : Front: L R
Частота                                  : 48,0 КГц
Битовая глубина                          : 16 бит
Метод сжатия                             : С потерями
Размер потока                            : 9,89 Мбайт (5%)
Заголовок                                : DD2.0 AlexFilm
Язык                                     : Russian
Default                                  : Да
Forced                                   : Нет
Аудио #2
Идентификатор                            : 3
Формат                                   : AC-3
Формат/Информация                        : Audio Coding 3
Расширение режима                        : CM (complete main)
Параметр Endianness формата              : Big
Идентификатор кодека                     : A_AC3
Продолжительность                        : 7 м. 12 с.
Вид битрейта                             : Постоянный
Битрейт                                  : 192 Кбит/сек
Каналы                                   : 2 канала
Расположение каналов                     : Front: L R
Частота                                  : 48,0 КГц
Битовая глубина                          : 16 бит
Метод сжатия                             : С потерями
Размер потока                            : 9,89 Мбайт (5%)
Заголовок                                : DD2.0 Original
Язык                                     : English
Default                                  : Нет
Forced                                   : Нет
Текст #1
Идентификатор                            : 4
Формат                                   : ASS
Идентификатор кодека                     : S_TEXT/ASS
Идентификатор кодека/Информация          : Advanced Sub Station Alpha
Метод сжатия                             : Без потерь
Заголовок                                : AlexFilm
Язык                                     : Russian
Default                                  : Нет
Forced                                   : Нет
Текст #2
Идентификатор                            : 5
Формат                                   : ASS
Идентификатор кодека                     : S_TEXT/ASS
Идентификатор кодека/Информация          : Advanced Sub Station Alpha
Метод сжатия                             : Без потерь
Заголовок                                : Original
Язык                                     : English
Default                                  : Нет
Forced                                   : Нет
-
-Скриншоты:
-Добавлен приквел к третьему сезону
Download / Скачать

Хотите скачать бесплатно? Зарегистрируйтесь на сайте (ссылка на регистрацию). Pirat.ca - самый быстрый торрент трекер в рунете!

Как скачивать  ·   Что такое торрент  ·   Рейтинг и ограничения



Последний раз редактировалось: kugesan (2014-04-29 12:03), всего редактировалось 3 раз(а)

Пост 28-Дек-2013 09:30 (спустя 9 часов)

Топик был перенесен из форума Зарубежные сериалы (Трюм) в форум Сериалы в эфире
erchine
 

Verb

Шкипер

Пост 12-Янв-2014 02:40 (спустя 15 дней)

[Q] 

Спасибо. Наконец-то, продолжение отличного римейка
[Профиль]  [ЛС] 
Показать сообщения:    
Ответить на тему

Текущее время: Сегодня 10:07

Часовой пояс: GMT + 4



Вы не можете начинать темы
Вы не можете отвечать на сообщения
Вы не можете редактировать свои сообщения
Вы не можете удалять свои сообщения
Вы не можете голосовать в опросах
Вы не можете прикреплять файлы к сообщениям
Вы не можете скачивать файлы

▼ Вниз