ML
     
  Уважаемый Гость!
Вы можете поддержать проект и зарегистрироваться у наших партнеров - онлайн-стратегия MyLands. При регистрации в игре Вы получите код, который сможете активировать после регистрации на pirat.ca и получить 1000 дублонов.

Ваш код:
f612af22ea70acf5cbe90707ac5a076d215f8f7f
 
     

Десятое королевство / The 10th Kingdom / Сезон: 1 / Серии: 1-5 (Дэвид Карсон, Херберт Уайз / David Carson, Herbert Wise) [1999 г., Фэнтези, сказка, DVDRip-AVC] MVO

Ответить на тему
 
Автор
Сообщение

Пост 28-Дек-2013 20:58

[Q] 

crc32

Штурман

-Десятое королевство / The 10th Kingdom(1-5 серии из 5)-- Производство: США, Германия, Великобритания
Жанр: Фэнтези, сказка
Год выпуска: 1999 г.
Продолжительность: 01:25:00
Мировая премьера: 27 февраля 2000
Дата выхода DVD: 17 января 2008
Перевод: Профессиональный (многоголосый, закадровый)
Режиссер: Дэвид Карсон, Херберт Уайз / David Carson, Herbert Wise-В ролях: Кимберли Уильямс-Пэйсли, Скотт Коэн, Джон Ларрокетт, Дайэнн Уист, Дэниэл Лапэйн, Эд О’Нил, Рутгер Хауэр, Доун Льюис, Хью О’Горман, Джереми Биркетт-Описание: Официантка нью-йоркского кафе Вирджиния однажды спасает песика, который оказывается заколдованным принцем Венделом, сбежавшим из Страны Девяти Королевств в наш мир, спасаясь от злой Королевы-Мачехи. Принц приходится внуком Белоснежке и является прямым наследником трона, но у Королевы свои планы.
Она посылает уродливых и злых троллей убить принца, и они тоже перебираются в наш мир… Так, неожиданно для себя, обычная современная девушка Вирджиния оказывается в самом центре невероятных фантастических событий.-
Качество видео: DVDRip-AVC
Контейнер: MKV
Видео кодек: H.264
Аудио кодек: AC3
Видео: MPEG4 Video (H264), [email protected], ~1800 Kbps, 25.00fps
Аудио: AC-3, 48000Hz, 448 kbps, 6ch (русский многоголосый закадровый)
Аудио #2: AC-3, 48000Hz, 192 kbps, 2ch (оригинал)
Cубтитры: отсутствуют
Общее
Уникальный идентификатор : 198897979566825212222052522226720930229 (0x95A25B8352CE0FA58431BC08E8BB79B5)
Полное имя
Формат : Matroska
Версия формата : Version 2
Размер файла : 1,46 Гбайт
Продолжительность : 1 ч. 24 м.
Общий поток : 2464 Кбит/сек
Дата кодирования : UTC 2011-02-19 20:34:01
Программа кодирования : mkvmerge v4.4.0 ('Die Wiederkehr') built on Oct 31 2010 21:52:48
Библиотека кодирования : libebml v1.0.0 + libmatroska v1.0.0
Видео
Идентификатор : 1
Формат : AVC
Формат/Информация : Advanced Video Codec
Профиль формата : [email protected]
Параметр CABAC формата : Да
Параметр ReFrames формата : 4 кадра
Идентификатор кодека : V_MPEG4/ISO/AVC
Продолжительность : 1 ч. 24 м.
Битрейт : 1822 Кбит/сек
Ширина : 704 пикселя
Высота : 576 пикселей
Соотношение сторон : 1,370
Соотношение сторон в оригинале : 4:3
Режим частоты кадров : Постоянный
Частота кадров : 25,000 кадров/сек
Стандарт вещания : PAL
Цветовое пространство : YUV
Субдискретизация насыщенности : 4:2:0
Битовая глубина : 8 бит
Тип развёртки : Прогрессивная
Бит/(Пиксели*Кадры) : 0.180
Размер потока : 1,05 Гбайт (72%)
Библиотека кодирования : x264 core 112 r1867 22bfd31
Настройки программы : cabac=1 / ref=3 / deblock=1:-1:-1 / analyse=0x3:0x113 / me=hex / subme=7 / psy=1 / psy_rd=1.00:0.15 / mixed_ref=1 / me_range=16 / chroma_me=1 / trellis=1 / 8x8dct=1 / cqm=0 / deadzone=21,11 / fast_pskip=1 / chroma_qp_offset=-3 / threads=6 / sliced_threads=0 / nr=0 / decimate=1 / interlaced=0 / constrained_intra=0 / bframes=3 / b_pyramid=2 / b_adapt=1 / b_bias=0 / direct=1 / weightb=1 / open_gop=0 / weightp=2 / keyint=250 / keyint_min=25 / scenecut=40 / intra_refresh=0 / rc_lookahead=40 / rc=2pass / mbtree=1 / bitrate=1822 / ratetol=1.0 / qcomp=0.60 / qpmin=0 / qpmax=51 / qpstep=4 / cplxblur=20.0 / qblur=0.5 / ip_ratio=1.40 / aq=1:1.00
Default : Да
Forced : Нет
Аудио #1
Идентификатор : 2
Формат : AC-3
Формат/Информация : Audio Coding 3
Расширение режима : CM (complete main)
Параметр Endianness формата : Big
Идентификатор кодека : A_AC3
Продолжительность : 1 ч. 24 м.
Вид битрейта : Постоянный
Битрейт : 448 Кбит/сек
Каналы : 6 каналов
Расположение каналов : Front: L C R, Side: L R, LFE
Частота : 48,0 КГц
Битовая глубина : 16 бит
Метод сжатия : С потерями
Размер потока : 271 Мбайт (18%)
Заголовок : Русский многоголосы закадровый
Язык : Russian
Default : Да
Forced : Нет
Аудио #2
Идентификатор : 3
Формат : AC-3
Формат/Информация : Audio Coding 3
Расширение режима : CM (complete main)
Параметр Endianness формата : Big
Идентификатор кодека : A_AC3
Продолжительность : 1 ч. 24 м.
Вид битрейта : Постоянный
Битрейт : 192 Кбит/сек
Каналы : 2 канала
Расположение каналов : Front: L R
Частота : 48,0 КГц
Битовая глубина : 16 бит
Метод сжатия : С потерями
Размер потока : 116 Мбайт (8%)
Заголовок : English
Язык : English
Default : Нет
Forced : Нет
В раздаче присутствует шестая серия: о создателях, об актерах, о сюжете, в общем фильм о фильме.
Приятного просмотра и с наступающим Новым Годом :)
Download / Скачать

Хотите скачать бесплатно? Зарегистрируйтесь на сайте (ссылка на регистрацию). Pirat.ca - самый быстрый торрент трекер в рунете!

Как скачивать  ·   Что такое торрент  ·   Рейтинг и ограничения



Последний раз редактировалось: crc32 (2013-12-29 14:02), всего редактировалось 2 раз(а)

TriGun

Морской Волк

Пост 29-Дек-2013 01:49 (спустя 4 часа)

[Q] 

как снимали..у нас до сих пор так не могут..гуд тема посмотреть под праздники с детьми Автору респект!!!

_________________
[Профиль]  [ЛС] 

crc32 ®

Штурман

19

Пост 29-Дек-2013 14:06 (спустя 12 часов)

[Q] 

у нас до сих пор так не могут
Во времена СССР могли, когда хотели, а сейчас... А сейчас 2/3 бюджета распилят до сьемок, потом лепят г. на то что осталось
[Профиль]  [ЛС] 

Пост 29-Дек-2013 17:10 (спустя 3 часа)

Топик был перенесен из форума Зарубежные сериалы (Трюм) в форум Зарубежные сериалы
erchine
 
Показать сообщения:    
Ответить на тему

Текущее время: Сегодня 00:26

Часовой пояс: GMT + 4



Вы не можете начинать темы
Вы не можете отвечать на сообщения
Вы не можете редактировать свои сообщения
Вы не можете удалять свои сообщения
Вы не можете голосовать в опросах
Вы не можете прикреплять файлы к сообщениям
Вы не можете скачивать файлы

▼ Вниз