ML
     
  Уважаемый Гость!
Вы можете поддержать проект и зарегистрироваться у наших партнеров - онлайн-стратегия MyLands. При регистрации в игре Вы получите код, который сможете активировать после регистрации на pirat.ca и получить 1000 дублонов.

Ваш код:
0af2e2107bc9b5dd5ac2c09f9fc25e1a77c43887
 
     

Смертельная битва: Наследие / Mortal Kombat: Legacy (Сезон: 2, полный, 10 серий) (Кевин Танчароэн / Kevin Tancharoen) [2011 г., фэнтези, боевик, триллер, криминал, WEB-DLRip] MVO (LostFilm)

Ответить на тему
 
Автор
Сообщение

Пост 29-Дек-2013 19:18

[Q] 

kugesan

Смертельная битва: Наследие
Mortal Kombat: Legacy
- Русское название: Смертельная битва: Наследие
Оригинальное название: Mortal Kombat: Legacy
Страна: США, Канада
Год выпуска: 2013
Жанр: фэнтези, боевик, триллер, криминал-Озвучка: Студия LostFilm
Перевод: Многоголосый закадровый, профессиональный-Премьера (мир): 11 апреля 2011, ...-Режиссер: Кевин Танчароэн / Kevin Tancharoen
В главных ролях: Джонсон Фэн, Каспер Ван Дин, Йен Энтони Дэйл, Саманта Джо, Ким Ду Нгуйен, Даррен Шахлави, Эндрю Чин, Морисса Танчароэн, Алекс Паунович, Майкл Джей Уайт ...-Описание фильма:
Сериал является приквелом к кинофильмам из серии "Смертельная битва".
Первый сезон сериала состоит из девяти короткометражных фильмов, рассказывающих о том, как каждый из героев попал на турнир «Смертельная битва».-Сезон: 2
Серии: 10 из 10 серий
Продолжительность: ~ 00:10:00 мин серия-Качество видео: WEB-DLRip
Формат: AVI
Видеокодек: XviD
Аудиокодек: Mp3
Видео: MPEG-4 Visual at 1270 Кбит/сек, 720 x 400 (1.800) at 23.976 fps, 0.184 Бит/Пиксели
Аудио: MPEG Audio at 181 Кбит/сек, 2 канала, 48,0 КГц
- -Сериал "Смертельная битва: Наследие / Mortal Kombat: Legacy" на треке Pirat.ca-
  • Episode #2.1
  • Episode #2.2
  • Episode #2.3
  • Episode #2.4
  • Episode #2.5
  • Episode #2.6
  • Episode #2.7
  • Episode #2.8
  • Episode #2.9
  • Episode #2.10
-
Код:
Общее
Полное имя                               : E:\_Сериалы\Смертельная битва Наследие\Mortal Kombat Legacy-2 LostFilm\Mortal.Kombat.Legacy.S02E01.rus.LostFilm.TV.avi
Формат                                   : AVI
Формат/Информация                        : Audio Video Interleave
Размер файла                             : 114 Мбайт
Продолжительность                        : 10 м.
Режим общего битрейта                    : Переменный
Общий поток                              : 1464 Кбит/сек
Программа кодирования                    : Nandub v1.0rc2
Библиотека кодирования                   : Nandub build 1853/release
Видео
Идентификатор                            : 0
Формат                                   : MPEG-4 Visual
Профиль формата                          : [email protected]
Параметр BVOP формата                    : Нет
Параметр QPel формата                    : Нет
Параметр GMC формата                     : Без точки перехода
Параметр матрицы формата                 : Default (H.263)
Идентификатор кодека                     : XVID
Идентификатор кодека/Подсказка           : XviD
Продолжительность                        : 10 м.
Битрейт                                  : 1270 Кбит/сек
Ширина                                   : 720 пикселей
Высота                                   : 400 пикселей
Соотношение сторон                       : 16:9
Частота кадров                           : 23,976 кадра/сек
Цветовое пространство                    : YUV
Субдискретизация насыщенности            : 4:2:0
Битовая глубина                          : 8 бит
Тип развёртки                            : Прогрессивная
Метод сжатия                             : С потерями
Бит/(Пиксели*Кадры)                      : 0.184
Размер потока                            : 98,9 Мбайт (87%)
Библиотека кодирования                   : XviD 1.2.1 (UTC 2008-12-04)
Аудио
Идентификатор                            : 1
Формат                                   : MPEG Audio
Версия формата                           : Version 1
Профиль формата                          : Layer 3
Режим                                    : Joint stereo
Расширение режима                        : MS Stereo
Идентификатор кодека                     : 55
Идентификатор кодека/Подсказка           : MP3
Продолжительность                        : 10 м.
Вид битрейта                             : Переменный
Битрейт                                  : 181 Кбит/сек
Номинальный битрейт                      : 192 Кбит/сек
Каналы                                   : 2 канала
Частота                                  : 48,0 КГц
Метод сжатия                             : С потерями
Размер потока                            : 14,1 Мбайт (12%)
Выравнивание                             : Соединение по промежуткам
Продолжительность промежутка             : 24  мс. (0,58 видеокадр)
Время предзагрузки промежутка            : 523  мс.
Библиотека кодирования                   : LAME3.97b
Настройки программы                      : -m j -V 4 -q 3 -lowpass 18.6 --abr 192
-
-Скриншоты:
-
-
-Добавлена десятая, заключительная, серия второго сезонаРаботаю за
Download / Скачать

Хотите скачать бесплатно? Зарегистрируйтесь на сайте (ссылка на регистрацию). Pirat.ca - самый быстрый торрент трекер в рунете!

Как скачивать  ·   Что такое торрент  ·   Рейтинг и ограничения



Последний раз редактировалось: kugesan (2014-01-08 19:02), всего редактировалось 4 раз(а)

x-ORiON-x

Штурман

Пост 30-Дек-2013 12:19 (спустя 17 часов)

[Q] 

Я уже отсмотрел оба сезона и скажу вам следующее: Если первый сезон смотрелся как приквел и допы к первому фильму, то второй мне показался скучным и "перемудренным"...

_________________
- Является ли пиратством установка программы не с оригинального носителя, а скажем, с копии такого носителя?
- Нет, не является, т. к. пиратство подразумевает наличие моря-океана, корабля и абордажной команды.(С)
[Профиль]  [ЛС] 

kugesan ®

56687

Пост 30-Дек-2013 18:01 (спустя 5 часов)

[Q] 

Добавлена четвертая серия

_________________

В мире две бесконечности: вселенная и человеческая глупость - Альберт Эйнштен
«Можно вытащить человека из грязи, но нельзя вытащить грязь из человека»!
[Профиль]  [ЛС] 

skuratova01

Лоцман

Пост 30-Дек-2013 23:36 (спустя 5 часов)

[Q] 

как обычно первый фильм - шедевр, остальное ....., но если пересмотреть первую часть сейчас, то сериал станет мега шедевром
[Профиль]  [ЛС] 

kugesan ®

56687

Пост 08-Янв-2014 19:04 (спустя 8 дней)

[Q] 

Добавлена десятая, заключительная, серия второго сезона

_________________

В мире две бесконечности: вселенная и человеческая глупость - Альберт Эйнштен
«Можно вытащить человека из грязи, но нельзя вытащить грязь из человека»!
[Профиль]  [ЛС] 

Susler

Морской Волк

Пост 11-Янв-2014 00:01 (спустя 2 дня 4 часа)

[Q] 

Прикольно, но лучше бы сделали нарезку в один файл.
Непонравилось что только титры и "в предыдущей серии" на половину каждого ролика...
[Профиль]  [ЛС] 

CHARLI2236

1097

Пост 28-Мар-2014 15:15 (спустя 2 месяца 17 дней)

[Q] 

подключусь AntiZip 06

_________________
[Профиль]  [ЛС] 

kugesan ®

56687

Пост 28-Мар-2014 16:55 (спустя 1 час 39 минут)

[Q] 

CHARLI2236, aa az

_________________

В мире две бесконечности: вселенная и человеческая глупость - Альберт Эйнштен
«Можно вытащить человека из грязи, но нельзя вытащить грязь из человека»!
[Профиль]  [ЛС] 
Показать сообщения:    
Ответить на тему

Текущее время: Сегодня 00:08

Часовой пояс: GMT + 4



Вы не можете начинать темы
Вы не можете отвечать на сообщения
Вы не можете редактировать свои сообщения
Вы не можете удалять свои сообщения
Вы не можете голосовать в опросах
Вы не можете прикреплять файлы к сообщениям
Вы не можете скачивать файлы

▼ Вниз