ML
     
  Уважаемый Гость!
Вы можете поддержать проект и зарегистрироваться у наших партнеров - онлайн-стратегия MyLands. При регистрации в игре Вы получите код, который сможете активировать после регистрации на pirat.ca и получить 1000 дублонов.

Ваш код:
822959f93c00d34653763d5bbf9ee9a7134af98a
 
     

Интеллект / Искусственный интеллект / Разведка / Intelligence (US) (Сезон: 1 / Серии: 1-13 из 13) (Тим Хантер, Олрик Райли, Роб Бэйли) [2013 - 2014 гг., Фантастика, боевик, WEB-DL] MVO (BaibaKo) + Original

Ответить на тему
 
Автор
Сообщение

Пост 09-Янв-2014 23:37

[Q] 

UcrusPazzo

Интеллект / Искусственный интеллект / Разведка / Intelligence (US)«Вам и не снилось, что в его голове» -Год выпуска: 2013 - 2014 гг.
Страна: США, ABC Studios, CBS Television Studios, Vinson Films
Жанр: Фантастика, боевик
Продолжительность: ~00:43:30
Перевод: Профессиональный (многоголосый закадровый) BaibaKo
Русские субтитры: нет-Релиз:
Авторы перевода: Татьяна Saavick
Озвучка: Светлана Доманова, Ольга Мотрич, Владимир Курдов и Сергей Корчак-Режиссёр: Тим Хантер, Олрик Райли, Роб Бэйли-В ролях: Джош Холлоуэй, Меган Ори, Марж Хелгенбергер, Майкл Рэди, Джеймс Мартинес, Лэнс Реддик, Ронни Джин Блевинс, Джон Костри, Lucas a Davis, Кэс Анвар-Описание: Гэбриэл - идеальный разведчик - боец спецслужб с интегрированным в мозг суперкомпьютером. Благодаря этому чипу Гэбриэл становится единственным в мире человеком, способным напрямую подключать своё сознание к глобальной информационной сети и имеет безграничный доступ к Интернету, Wi-Fi, телефонной связи и спутниковому наблюдению. Он может взломать любую базу данных и любой шифр, чтобы защитить Соединенные Штаты. Кибернетическое командование США закрепляет агента секретной службы Райли Нил за Гэбриэлом, чтобы защитить его от внешних угроз и контролировать его склонность к безрассудству, неуважение к правилам и непредсказуемое поведение. Будучи первым живым суперкомпьютером Гэбриэл представляет собой самый ценный технологический актив, когда либо изобретенный в стране, а так же секретное оружие США.-Качество: WEB-DL
Формат: AVI
Видео кодек: XviD
Аудио кодек: Mp3
Видео: 720x400 (1.80:1), 23.976 fps, XviD build 50 ~1501 kbps avg, 0.22 bit/pixel
Аудио: Русский; 48 kHz, MPEG Layer 3, 2 ch, ~192.00 kbps avg
Аудио 2: Английский; 48 kHz, MPEG Layer 3, 2 ch, ~192.00 kbps avg
Субтитры: нет
  • Пилот (Pilot)
  • Рэд-Экс (Red X)
  • Мэй Чен возвращается (Mei Chen Returns)
  • Секреты секретных служб (Secrets of the Secret Service)
  • Спасение (Cain & Gabriel)
  • Нулевой пациент (Patient Zero)
  • Размер имеет значение (Size Matters)
  • Подразделение «Дельта» (Delta Force)
  • Афины (Athens)
  • Каин и Габриэль (Cain and Gabriel)
  • Серый хакер (The Grey Hat)
  • Горизонт событий (The Event Horizon)
  • Быть человеком (Being Human)
Общее
Формат : AVI
Формат/Информация : Audio Video Interleave
Размер файла : 588 Мбайт
Продолжительность : 43 м.
Общий поток : 1900 Кбит/сек
Программа кодирования : VirtualDubMod 1.5.10.2 (build 2540/release)
Библиотека кодирования : VirtualDubMod build 2540/release
Видео
Идентификатор : 0
Формат : MPEG-4 Visual
Профиль формата : Advanced [email protected]
Параметр BVOP формата : 2
Параметр QPel формата : Нет
Параметр GMC формата : Без точки перехода
Параметр матрицы формата : Default (H.263)
Идентификатор кодека : XVID
Идентификатор кодека/Подсказка : XviD
Продолжительность : 43 м.
Битрейт : 1502 Кбит/сек
Ширина : 720 пикселей
Высота : 400 пикселей
Соотношение сторон : 16:9
Частота кадров : 23,976 кадра/сек
Цветовое пространство : YUV
Субдискретизация насыщенности : 4:2:0
Битовая глубина : 8 бит
Тип развёртки : Прогрессивная
Метод сжатия : С потерями
Бит/(Пиксели*Кадры) : 0.218
Размер потока : 465 Мбайт (79%)
Библиотека кодирования : XviD 1.2.1 (UTC 2008-12-04)
Аудио #1
Идентификатор : 1
Формат : MPEG Audio
Версия формата : Version 1
Профиль формата : Layer 3
Режим : Joint stereo
Расширение режима : MS Stereo
Идентификатор кодека : 55
Идентификатор кодека/Подсказка : MP3
Продолжительность : 43 м.
Вид битрейта : Постоянный
Битрейт : 192 Кбит/сек
Каналы : 2 канала
Частота : 48,0 КГц
Метод сжатия : С потерями
Размер потока : 59,4 Мбайт (10%)
Выравнивание : Соединение по промежуткам
Продолжительность промежутка : 42 мс. (1,00 видеокадр)
Время предзагрузки промежутка : 504 мс.
Аудио #2
Идентификатор : 2
Формат : MPEG Audio
Версия формата : Version 1
Профиль формата : Layer 3
Режим : Joint stereo
Расширение режима : MS Stereo
Идентификатор кодека : 55
Идентификатор кодека/Подсказка : MP3
Продолжительность : 43 м.
Вид битрейта : Постоянный
Битрейт : 192 Кбит/сек
Каналы : 2 канала
Частота : 48,0 КГц
Метод сжатия : С потерями
Размер потока : 59,4 Мбайт (10%)
Выравнивание : Соединение по промежуткам
Продолжительность промежутка : 42 мс. (1,00 видеокадр)
Время предзагрузки промежутка : 504 мс.
Download / Скачать

Хотите скачать бесплатно? Зарегистрируйтесь на сайте (ссылка на регистрацию). Pirat.ca - самый быстрый торрент трекер в рунете!

Как скачивать  ·   Что такое торрент  ·   Рейтинг и ограничения



Последний раз редактировалось: UcrusPazzo (2014-02-05 10:48), всего редактировалось 4 раз(а)

UcrusPazzo ®

7670

Пост 15-Янв-2014 10:32 (спустя 5 дней)

[Q] 

Добавлена 2 серия

_________________
[Профиль]  [ЛС] 

Sergejs44

Морской Волк

Пост 15-Янв-2014 10:44 (спустя 12 минут)

[Q] 

первая серия нормальная была .
[Профиль]  [ЛС] 

elektrik_as

Лоцман

Пост 15-Янв-2014 21:43 (спустя 10 часов)

[Q] 

Посмотрим, что за сериал.
[Профиль]  [ЛС] 

UcrusPazzo ®

7670

Пост 22-Янв-2014 10:43 (спустя 6 дней)

[Q] 

Добавлена 3 серия

_________________
[Профиль]  [ЛС] 

vovanig

39141

Пост 22-Янв-2014 11:07 (спустя 24 минуты)

[Q] 

Первая серия понравилась, бум дальше смотреть. Раздающему респект!
[Профиль]  [ЛС] 

UcrusPazzo ®

7670

Пост 30-Янв-2014 19:17 (спустя 8 дней)

[Q] 

Добавлена 4 серия

_________________
[Профиль]  [ЛС] 

UcrusPazzo ®

7670

Пост 05-Фев-2014 10:49 (спустя 5 дней)

[Q] 

Добавлена 5 серия

_________________
[Профиль]  [ЛС] 

Michaell43

Корсар

378

Пост 05-Фев-2014 23:34 (спустя 12 часов)

[Q] 

Спасибо! Автору респект!!!
[Профиль]  [ЛС] 

maximka2006

Морской Волк

Пост 20-Фев-2014 21:09 (спустя 14 дней)

[Q] 

Спасибо! Но скорости вообще нет(
[Профиль]  [ЛС] 

kugesan

56690

Пост 27-Мар-2014 15:54 (спустя 1 месяц 6 дней)

[Q] 

Добавлена 12 серия

_________________

В мире две бесконечности: вселенная и человеческая глупость - Альберт Эйнштен
«Можно вытащить человека из грязи, но нельзя вытащить грязь из человека»!
[Профиль]  [ЛС] 

allexx1975

Штурман

Пост 27-Мар-2014 18:29 (спустя 2 часа 34 минуты)

[Q] 

Спасибо, Давно качаю с твоих раздач. Спасибо!!!

_________________
злой инкассатор
[Профиль]  [ЛС] 

kugesan

56690

Пост 02-Апр-2014 19:25 (спустя 6 дней)

[Q] 

Добавлена 13 серия

_________________

В мире две бесконечности: вселенная и человеческая глупость - Альберт Эйнштен
«Можно вытащить человека из грязи, но нельзя вытащить грязь из человека»!
[Профиль]  [ЛС] 

Пост 02-Апр-2014 19:26 (спустя 21 секунда)

Топик был перенесен из форума Сериалы в эфире в форум Зарубежные сериалы
kugesan
 

max3075

Лоцман

Пост 03-Апр-2014 08:53 (спустя 13 часов)

[Q] 

Дайте газку пжста !!!
[Профиль]  [ЛС] 

UcrusPazzo ®

7670

Пост 05-Мар-2015 23:13 (спустя 11 месяцев 2 дня)

[Q] 

Из-за нехватки места на диске, ушел с раздачи.
Оставил раздачу на группу Seed Aid

_________________
[Профиль]  [ЛС] 
Показать сообщения:    
Ответить на тему

Текущее время: Сегодня 05:53

Часовой пояс: GMT + 4



Вы не можете начинать темы
Вы не можете отвечать на сообщения
Вы не можете редактировать свои сообщения
Вы не можете удалять свои сообщения
Вы не можете голосовать в опросах
Вы не можете прикреплять файлы к сообщениям
Вы не можете скачивать файлы

▼ Вниз