ML
     
  Уважаемый Гость!
Вы можете поддержать проект и зарегистрироваться у наших партнеров - онлайн-стратегия MyLands. При регистрации в игре Вы получите код, который сможете активировать после регистрации на pirat.ca и получить 1000 дублонов.

Ваш код:
ee1288b6f7c09d9d2cb2a0f972aba30460ce9333
 
     

Интеллект / Искусственный интеллект / Разведка / Intelligence (Сезон: 1 / Серии: 1-13 из 13) (Тим Хантер, Олрик Райли, Роб Бэйли) [2013 - 2014 гг., Фантастика, боевик, HDTVRip] MVO (LostFilm) + Original (Eng)

Ответить на тему
 
Автор
Сообщение

Пост 10-Янв-2014 00:40

[Q] 

UcrusPazzo

Интеллект / Искусственный интеллект / Разведка / Intelligence -Год выпуска: 2013 - 2014 гг.
Страна: США, ABC Studios, CBS Television Studios, Vinson Films
Жанр: Фантастика, боевик
Продолжительность: ~00:43:37
Перевод: Профессиональный (многоголосый закадровый) LostFilm
Оригинальный аудиопоток: английский-Режиссёр: Тим Хантер, Олрик Райли, Роб Бэйли-В ролях: Джош Холлоуэй, Меган Ори, Марж Хелгенбергер, Майкл Рэди, Джеймс Мартинес, Лэнс Реддик, Ронни Джин Блевинс, Джон Костри, Lucas a Davis, Кэс Анвар-Описание: Гэбриэл - идеальный разведчик - боец спецслужб с интегрированным в мозг суперкомпьютером. Благодаря этому чипу Гэбриэл становится единственным в мире человеком, способным напрямую подключать своё сознание к глобальной информационной сети и имеет безграничный доступ к Интернету, Wi-Fi, телефонной связи и спутниковому наблюдению. Он может взломать любую базу данных и любой шифр, чтобы защитить Соединенные Штаты. Кибернетическое командование США закрепляет агента секретной службы Райли Нил за Гэбриэлом, чтобы защитить его от внешних угроз и контролировать его склонность к безрассудству, неуважение к правилам и непредсказуемое поведение. Будучи первым живым суперкомпьютером Гэбриэл представляет собой самый ценный технологический актив, когда либо изобретенный в стране, а так же секретное оружие США.-Формат: AVI
Видео кодек: XviD
Аудио кодек: Mp3
Видео: 720x400 (1.80:1), 23.976 fps, XviD MPEG-4 ~1643 kbps avg, 0.24 bit/pixel
Аудио: 48 kHz, MPEG Layer 3, 2 ch, ~186.59 kbps avg
Субтитры: отсутствуют
  • Пилот (Pilot)
  • Рэд-Экс (Red X)
  • Возвращение Мэй Чен (Mei Chen Returns)
  • Тайны секретной службы (Secrets of the Secret Service)
  • Освобождение (Cain & Gabriel)
  • Нулевой пациент (Patient Zero)
  • Размер имеет значение (Size Matters)
  • Отряд "Дельта" (Delta Force)
  • Афины (Athens)
  • Каин и Габриэль (Cain and Gabriel
  • Серый хакер (The Grey Hat)
  • Горизонт событий (The Event Horizon)
  • Быть человеком (Being Human)
Общее
Формат : AVI
Формат/Информация : Audio Video Interleave
Размер файла : 575 Мбайт
Продолжительность : 43 м.
Режим общего битрейта : Переменный
Общий поток : 1844 Кбит/сек
Программа кодирования : Nandub v1.0rc2
Библиотека кодирования : Nandub build 1853/release
Видео
Идентификатор : 0
Формат : MPEG-4 Visual
Профиль формата : [email protected]
Параметр BVOP формата : Нет
Параметр QPel формата : Нет
Параметр GMC формата : Без точки перехода
Параметр матрицы формата : Default (H.263)
Идентификатор кодека : XVID
Идентификатор кодека/Подсказка : XviD
Продолжительность : 43 м.
Битрейт : 1645 Кбит/сек
Ширина : 720 пикселей
Высота : 400 пикселей
Соотношение сторон : 16:9
Частота кадров : 23,976 кадра/сек
Цветовое пространство : YUV
Субдискретизация насыщенности : 4:2:0
Битовая глубина : 8 бит
Тип развёртки : Прогрессивная
Метод сжатия : С потерями
Бит/(Пиксели*Кадры) : 0.238
Размер потока : 513 Мбайт (89%)
Библиотека кодирования : XviD 1.2.1 (UTC 2008-12-04)
Аудио
Идентификатор : 1
Формат : MPEG Audio
Версия формата : Version 1
Профиль формата : Layer 3
Режим : Joint stereo
Расширение режима : MS Stereo
Идентификатор кодека : 55
Идентификатор кодека/Подсказка : MP3
Продолжительность : 43 м.
Вид битрейта : Переменный
Битрейт : 192 Кбит/сек
Каналы : 2 канала
Частота : 48,0 КГц
Метод сжатия : С потерями
Размер потока : 58,2 Мбайт (10%)
Выравнивание : Соединение по промежуткам
Продолжительность промежутка : 24 мс. (0,58 видеокадр)
Время предзагрузки промежутка : 518 мс.
Библиотека кодирования : LAME3.97b
Настройки программы : -m j -V 4 -q 3 -lowpass 18.6 --abr 192
Сериал "Интеллект / Искусственный интеллект / Разведка / Intelligence" на треке Pirat.ca
Download / Скачать

Хотите скачать бесплатно? Зарегистрируйтесь на сайте (ссылка на регистрацию). Pirat.ca - самый быстрый торрент трекер в рунете!

Как скачивать  ·   Что такое торрент  ·   Рейтинг и ограничения



Последний раз редактировалось: UcrusPazzo (2014-02-07 12:29), всего редактировалось 3 раз(а)

UcrusPazzo ®

7670

Пост 26-Янв-2014 17:11 (спустя 16 дней)

[Q] 

Добавлена 2 и 3 серия

_________________
[Профиль]  [ЛС] 

UcrusPazzo ®

7670

Пост 30-Янв-2014 19:20 (спустя 4 дня)

[Q] 

Добавлена 4 серия

_________________
[Профиль]  [ЛС] 

UcrusPazzo ®

7670

Пост 07-Фев-2014 12:30 (спустя 7 дней)

[Q] 

Добавлена 5 серия

_________________
[Профиль]  [ЛС] 

ELEN

Морской Волк

Пост 07-Фев-2014 20:33 (спустя 8 часов)

[Q] 

КЛАССНЫЙ СЕРИАЛ АВТОРУ И РАЗДАЮЩИМ СПАСИБО !!! Пиратка рулит! Раздающему респект!
[Профиль]  [ЛС] 

kugesan

56680

Пост 27-Фев-2014 23:14 (спустя 20 дней)

[Q] 

Добавлена 8 серия

_________________

В мире две бесконечности: вселенная и человеческая глупость - Альберт Эйнштен
«Можно вытащить человека из грязи, но нельзя вытащить грязь из человека»!
[Профиль]  [ЛС] 

Region-89

Гроза морей

550

Пост 28-Фев-2014 02:32 (спустя 3 часа)

[Q] 

а тут есть от АлексФильм раздачи? bi

_________________
[Профиль]  [ЛС] 

kugesan

56680

Пост 28-Фев-2014 20:30 (спустя 17 часов)

[Q] 

Region-89, AlexFilm этот сериал не озвучивает.
Добавлено спустя 3 минуты 3 секунды:
Почти человек, Спираль, Чёрные Паруса, Бесстыжие... Вот эти сериалы есть на треке в озвучке от AlexFilm

_________________

В мире две бесконечности: вселенная и человеческая глупость - Альберт Эйнштен
«Можно вытащить человека из грязи, но нельзя вытащить грязь из человека»!
[Профиль]  [ЛС] 

kugesan

56680

Пост 04-Апр-2014 15:59 (спустя 1 месяц 3 дня)

[Q] 

Добавлена 13 серия

_________________

В мире две бесконечности: вселенная и человеческая глупость - Альберт Эйнштен
«Можно вытащить человека из грязи, но нельзя вытащить грязь из человека»!
[Профиль]  [ЛС] 

tumparov

Морской Волк

Пост 06-Апр-2014 21:17 (спустя 2 дня 5 часов)

[Q] 

Спасибо !!!!!!! Лови бочку
[Профиль]  [ЛС] 

UcrusPazzo ®

7670

Пост 05-Мар-2015 23:16 (спустя 10 месяцев 29 дней)

[Q] 

Из-за нехватки места на диске, ушел с раздачи.
Оставил раздачу на группу Seed Aid

_________________
[Профиль]  [ЛС] 
Показать сообщения:    
Ответить на тему

Текущее время: Сегодня 18:20

Часовой пояс: GMT + 4



Вы не можете начинать темы
Вы не можете отвечать на сообщения
Вы не можете редактировать свои сообщения
Вы не можете удалять свои сообщения
Вы не можете голосовать в опросах
Вы не можете прикреплять файлы к сообщениям
Вы не можете скачивать файлы

▼ Вниз