ML
     
  Уважаемый Гость!
Вы можете поддержать проект и зарегистрироваться у наших партнеров - онлайн-стратегия MyLands. При регистрации в игре Вы получите код, который сможете активировать после регистрации на pirat.ca и получить 1000 дублонов.

Ваш код:
0fcd44bd35319f69313aa6e53b31c51cbff1c942
 
     

Спираль / Helix (Сезон: 1 / Серии: 1-13 из 13) (Дуан Кларк, Майк Рол, Брэд Тернер) [2014 г., Фантастика, триллер, WEB-DL, 720p] MVO [+ Original (Eng)] (BaibaKo)

Ответить на тему
 
Автор
Сообщение

Пост 13-Янв-2014 00:02

[Q] 

UcrusPazzo

Спираль / Helix«The truth will spread» -Производство: США, Lynda Obst Productions, Muse Entertainment Enterprises, Sony Pictures Television
Жанр: Фантастика, триллер
Год выпуска: 2014 г.
Продолжительность: 13 серий по ~00:41:37
Мировая премьера: 10 января 2014-Релиз:
Перевод: Профессиональный (многоголосый, закадровый) [BaibaKo]
Оригинальный аудиопоток: английский
Авторы перевода: vipere
Озвучка: Юлия Котурбаш, Елена Григорьева, Алексей Кузнецов и Артемий Мирон
Монтаж: Виталий Мартыняк
Обложка: Рин-Режиссер: Дуан Кларк, Майк Рол, Брэд Тернер
Сценарий: Рональд Д. Мур, Cameron Porsandeh, Хавьер Грилло-Марксуа
Продюсер: Сандрин Грос Д’Эйллон, Брэд Тернер, Хавьер Грилло-Марксуа
Оператор: Стивен МакНатт
Композитор: Райнхольд Хайль
Монтаж: Елена Маганини, Тодд Дерозье-В ролях: Билл Кэмпбелл, Джордан Хэйес, Кира Загорский, Марк Ганиме, Хироюки Санада, Meegwun Fairbrother, Нил Напье, Лучана Карро, Джулиан Кэйси, Кристиан Джада-Описание: Жанр этого сериала можно описать как научно-фантастический психотриллер с элементами хоррора. Один из создателей «Спирали», Рон Мур, известен нашим зрителям по драме «Каприка» (Caprica) 2009 года. После ее закрытия многие сериаломаны с нетерпением ждали возвращения Мура в большой сай-фай, но никто не предполагал, что это возвращение превзойдет самые смелые ожидания. Helix выстрелил из всех орудий — сюжет, персонажи, визуальный ряд, накал страстей, «бу-моменты», саундтрек, межличностные конфликты. Видно, что к этому продукту приложили руку настоящие поклонники научной фантастики, получающие удовольствие от своей работы.
«Спираль» начинается с того, что группу ученых из Центра по контролю за заболеваниями (Атланта) направляют в Арктику, где группа других ученых попала в очень неприятную ситуацию. Опасный вирус каким-то образом вышел из-под контроля, нескольких человек убил, а одного превратил в монстра. Перед главными героями стоит непростая задача — остановить распространение вируса в закрытом пространстве арктической лаборатории и ни в коем случае не допустить его выхода наружу. Иначе, как можно предположить, в мире начнется примерно то же самое, что в сериале «Ходячие мертвецы».
А пока «переносчики» живут по соседству со здоровыми людьми, и, как плохие соседи по коммуналке, доставляют им немало хлопот. В отличие от классических зомби, эти существа сохранили способность мыслить, но выглядят они при этом все равно мерзко и ведут себя соответствующим образом.-Качество видео: WEB-DL
Контейнер: MKV
Стандарт разрешения: 720p
Видео кодек: H.264
Аудио кодек: AC3
Видео: 3934 Кбит/сек; 1280*718 (16:9); 23,976 кадров/сек; AVC; 0.179 бит/пиксель
Аудио: Русский; 384 Кбит/сек; 48,0 КГц; 16 бит; 6 каналов; АС-3
Аудио #2: Английский; 384 Кбит/сек; 48,0 КГц; 16 бит; 6 каналов; АС-3
Cубтитры: отсутствуют
  • Пилот (Pilot)
  • Вектор (Переносчик агрессивного типа, который намеренно старается заразить окружающих) (Vector)
  • 274
  • Одиночная нить (Single Strand)
  • Белая комната (The White Room)
  • Аникатига (Aniqatiga)
  • Нулевой выздоровевший (Survivor Zero)
  • Кровная линия (Bloodline)
  • Уровень Икс
  • Фушиги (Чудо)
  • Чёрный дождь (Black Rain)
  • Покос (The Reaping)
  • В тени (Dans L'Ombre)
Общее
Уникальный идентификатор : 209906324366070214371452466582844646941 (0x9DEA7CD0D1087A7C99310FB41CDCA61D)
Формат : Matroska
Версия формата : Version 4 / Version 2
Размер файла : 1,39 Гбайт
Продолжительность : 41 м.
Общий поток : 4797 Кбит/сек
Название фильма : BaibaKo.tv presents - Спираль 1х01 Пилот
Дата кодирования : UTC 2014-01-12 00:52:10
Программа кодирования : mkvmerge v6.6.0 ('The Edge Of The In Between') built on Dec 1 2013 17:55:00
Библиотека кодирования : libebml v1.3.0 + libmatroska v1.4.1
Видео
Идентификатор : 1
Формат : AVC
Формат/Информация : Advanced Video Codec
Профиль формата : [email protected]
Параметр CABAC формата : Нет
Параметр ReFrames формата : 2 кадра
Параметр GOP формата : N=1
Идентификатор кодека : V_MPEG4/ISO/AVC
Продолжительность : 41 м.
Битрейт : 3934 Кбит/сек
Ширина : 1280 пикселей
Высота : 718 пикселей
Соотношение сторон : 16:9
Режим частоты кадров : Постоянный
Частота кадров : 23,976 кадра/сек
Цветовое пространство : YUV
Субдискретизация насыщенности : 4:2:0
Битовая глубина : 8 бит
Тип развёртки : Прогрессивная
Бит/(Пиксели*Кадры) : 0.179
Размер потока : 1,14 Гбайт (82%)
Язык : English
Default : Да
Forced : Нет
Основные цвета : BT.709
Характеристики трансфера : BT.709
Коэффициенты матрицы : BT.709
Аудио #1
Идентификатор : 2
Формат : AC-3
Формат/Информация : Audio Coding 3
Расширение режима : CM (complete main)
Параметр Endianness формата : Big
Идентификатор кодека : A_AC3
Продолжительность : 41 м.
Вид битрейта : Постоянный
Битрейт : 384 Кбит/сек
Каналы : 6 каналов
Расположение каналов : Front: L C R, Side: L R, LFE
Частота : 48,0 КГц
Битовая глубина : 16 бит
Метод сжатия : С потерями
Размер потока : 114 Мбайт (8%)
Заголовок : Rus BaibaKo.tv DD5.1
Язык : Russian
Default : Да
Forced : Нет
Аудио #2
Идентификатор : 3
Формат : AC-3
Формат/Информация : Audio Coding 3
Расширение режима : CM (complete main)
Параметр Endianness формата : Big
Идентификатор кодека : A_AC3
Продолжительность : 41 м.
Вид битрейта : Постоянный
Битрейт : 384 Кбит/сек
Каналы : 6 каналов
Расположение каналов : Front: L C R, Side: L R, LFE
Частота : 48,0 КГц
Битовая глубина : 16 бит
Метод сжатия : С потерями
Размер потока : 114 Мбайт (8%)
Заголовок : Eng DD5.1
Язык : English
Default : Нет
Forced : Нет
Сериал "Спираль / Helix" на треке Pirat.ca
Download / Скачать

Хотите скачать бесплатно? Зарегистрируйтесь на сайте (ссылка на регистрацию). Pirat.ca - самый быстрый торрент трекер в рунете!

Как скачивать  ·   Что такое торрент  ·   Рейтинг и ограничения



Последний раз редактировалось: UcrusPazzo (2015-01-18 13:02), всего редактировалось 10 раз(а)

XMax

Флибустьер

Пост 13-Янв-2014 04:26 (спустя 4 часа)

[Q] 

Начало вроде не плохое
Автору респект!!!
[Профиль]  [ЛС] 

UcrusPazzo ®

7670

Пост 26-Янв-2014 17:26 (спустя 13 дней)

[Q] 

Добавлена 3 и 4 серия

_________________
[Профиль]  [ЛС] 

UcrusPazzo ®

7670

Пост 02-Фев-2014 13:29 (спустя 6 дней)

[Q] 

Добавлена 5 серия

_________________
[Профиль]  [ЛС] 

UcrusPazzo ®

7670

Пост 17-Фев-2014 01:32 (спустя 14 дней)

[Q] 

Добавлена 6 и 7 серия

_________________
[Профиль]  [ЛС] 

UcrusPazzo ®

7670

Пост 24-Фев-2014 22:11 (спустя 7 дней)

[Q] 

Добавлена 8 серия

_________________
[Профиль]  [ЛС] 

UcrusPazzo ®

7670

Пост 12-Мар-2014 00:39 (спустя 15 дней)

[Q] 

Добавлена 9 и 10 серия

_________________
[Профиль]  [ЛС] 

UcrusPazzo ®

7670

Пост 18-Мар-2014 19:07 (спустя 6 дней)

[Q] 

Добавлена 11 серия

_________________
[Профиль]  [ЛС] 

minnstry

Морской Волк

Пост 18-Мар-2014 22:26 (спустя 3 часа)

[Q] 

как фильм????
[Профиль]  [ЛС] 

tester83

Штурман

Пост 19-Мар-2014 08:42 (спустя 10 часов)

[Q] 

хороший сериал, мне нравится!))
[Профиль]  [ЛС] 

UcrusPazzo ®

7670

Пост 25-Мар-2014 22:40 (спустя 6 дней)

[Q] 

Добавлена 12 серия

_________________
[Профиль]  [ЛС] 

UcrusPazzo ®

7670

Пост 02-Апр-2014 23:34 (спустя 8 дней)

[Q] 

Добавлена 13 серия

_________________
[Профиль]  [ЛС] 

sonyps

Морской Волк

Пост 06-Май-2014 22:52 (спустя 1 месяц 3 дня)

[Q] 

Ну ниче такое На любителя
[Профиль]  [ЛС] 

eugenea49

Морской Волк

Пост 16-Фев-2015 20:00 (спустя 9 месяцев 9 дней)

[Q] 

Лови бочку
[Профиль]  [ЛС] 

UcrusPazzo ®

7670

Пост 05-Мар-2015 23:14 (спустя 17 дней)

[Q] 

Из-за нехватки места на диске, ушел с раздачи.
Оставил раздачу на группу Seed Aid

_________________
[Профиль]  [ЛС] 
Показать сообщения:    
Ответить на тему

Текущее время: Сегодня 02:14

Часовой пояс: GMT + 4



Вы не можете начинать темы
Вы не можете отвечать на сообщения
Вы не можете редактировать свои сообщения
Вы не можете удалять свои сообщения
Вы не можете голосовать в опросах
Вы не можете прикреплять файлы к сообщениям
Вы не можете скачивать файлы

▼ Вниз