ML
     
  Уважаемый Гость!
Вы можете поддержать проект и зарегистрироваться у наших партнеров - онлайн-стратегия MyLands. При регистрации в игре Вы получите код, который сможете активировать после регистрации на pirat.ca и получить 1000 дублонов.

Ваш код:
a01a592a88af5f9996a6d1baec61b18a1769954d
 
     

Чёрные паруса / Black Sails (Сезон 1 / полный / 8 серий) (Нил Маршалл / Neil Marshall ...) [2014г., драма, приключения, ..., HDTVRip] МVO (BaibaKo) + Original (Eng)

Ответить на тему
 
Автор
Сообщение

Пост 20-Янв-2014 19:00

[Q] 

kugesan


Чёрные паруса /Black Sails
- Русское название: Чёрные паруса
Оригинальное название: Black Sails
Страна: США, ЮАР
Год выпуска: 2014
Жанр: драма, приключения, ...-Релиз:
Перевод: Профессиональный (многоголосый, закадровый)
Оригинальный аудиопоток: английский-Автор перевода:: Вячеслав Лоев и Янина Галицкая
Озвучка: Татьяна Оболевич, Елена Григорьева, Дмитрий Глебов, Олекса Мельник, Виталий Ткаченко, Артемий Мирон, Александр Фурман и Михаил Косяков
Монтаж: Виталий Ткаченко
Обложка: Антон Максимов-Премьера (мир): 25 января 2014
Премьера (РФ): 26 января 2014-Режиссер: Нил Маршалл / Neil Marshall, Сэм Миллер / Sam Miller, Т.Дж. Скотт / T.J. Scott ...
В главных ролях: Тоби Стивенс, Ханна Нью, Люк Арнольд, Зэк Макгоун, Тоби Шмитц, Клара Пэджет, Марк Райан, Хаким Кае-Казим, Дилан Скьюс, Шон Майкл, ...-Описание фильма:
1715 год. Золотой век — вершина пиратства в Карибском море. Остров бывшей британской колонии Нью-Провиденс является территорией беззакония, контролируемый самыми известными пиратскими капитанами в истории. Самым грозным из них является капитан Флинт.Но британский флот возвращается в эти воды, угрожая уничтожить Флинта и его команду. Движимый глубокими, сложными, даже романтическими мотивами, Флинт становится союзником с грозной Элеонорой Гатри, дочерью местного вора в законе, который превращает добычу пиратов в прибыль. Вместе они создают план, охотясь за высшей наградой, выиграв которую, они остановят захват своего дома и обеспечат их выживание.Им противостоит ряд соперников: конкурент капитана, завидующий власти Флинта, отец Элеоноры, чьи амбиции на острове приводят к конфликту с дочерью, и молодой моряк, Джон Сильвер, недавно принятый в экипаж Флинта, которому каким-то образом удается постоянно срывать планы своего капитана.-Сезон: 1
Серии: 8 из 8 серий
Продолжительность: ~ 01:04:00 мин серия-
Качество видео: HDTVRip
Формат: AVI
Видеокодек: XviD
Аудиокодек: MP3
Видео: MPEG-4 Visual at 1514 Кбит/сек: 720 x 400 (1.800) at 23.976 fps, 0.22 bit/pixel
Аудио Rus: MPEG Audio at 192 Кбит/сек, 2 канала, 48,0 КГц |BaibaKo|
Аудио Eng: MPEG Audio at 192 Кбит/сек: 2 канала, 48,0 КГц |Original|
Cубтитры: отсутствуют
-

-
  • Эпизод I.
  • Эпизод II.
  • Эпизод III.
  • Эпизод IV.
  • Эпизод V.
  • Эпизод VI.
  • Эпизод VII.
  • Эпизод VIII.
-
Код:
Общее
Полное имя                               : E:\_Сериалы\111\Чёрные Паруса\Black Sails-1(BaibaKo)\Black.Sails.s01e01.HDTVRip.XviD.Rus.Eng.BaibaKo.tv.avi
Формат                                   : AVI
Формат/Информация                        : Audio Video Interleave
Размер файла                             : 886 Мбайт
Продолжительность                        : 1 ч. 4 м.
Общий поток                              : 1912 Кбит/сек
Программа кодирования                    : VirtualDubMod 1.5.10.2 (build 2540/release)
Библиотека кодирования                   : VirtualDubMod build 2540/release
Видео
Идентификатор                            : 0
Формат                                   : MPEG-4 Visual
Профиль формата                          : Advanced [email protected]
Параметр BVOP формата                    : 2
Параметр QPel формата                    : Нет
Параметр GMC формата                     : Без точки перехода
Параметр матрицы формата                 : Default (H.263)
Идентификатор кодека                     : XVID
Идентификатор кодека/Подсказка           : XviD
Продолжительность                        : 1 ч. 4 м.
Битрейт                                  : 1514 Кбит/сек
Ширина                                   : 720 пикселей
Высота                                   : 400 пикселей
Соотношение сторон                       : 16:9
Частота кадров                           : 23,976 кадра/сек
Цветовое пространство                    : YUV
Субдискретизация насыщенности            : 4:2:0
Битовая глубина                          : 8 бит
Тип развёртки                            : Прогрессивная
Метод сжатия                             : С потерями
Бит/(Пиксели*Кадры)                      : 0.219
Размер потока                            : 702 Мбайт (79%)
Библиотека кодирования                   : XviD 1.2.1 (UTC 2008-12-04)
Аудио #1
Идентификатор                            : 1
Формат                                   : MPEG Audio
Версия формата                           : Version 1
Профиль формата                          : Layer 3
Режим                                    : Joint stereo
Расширение режима                        : MS Stereo
Идентификатор кодека                     : 55
Идентификатор кодека/Подсказка           : MP3
Продолжительность                        : 1 ч. 4 м.
Вид битрейта                             : Постоянный
Битрейт                                  : 192 Кбит/сек
Каналы                                   : 2 канала
Частота                                  : 48,0 КГц
Метод сжатия                             : С потерями
Размер потока                            : 89,0 Мбайт (10%)
Выравнивание                             : Соединение по промежуткам
Продолжительность промежутка             : 42  мс. (1,00 видеокадр)
Время предзагрузки промежутка            : 504  мс.
Аудио #2
Идентификатор                            : 2
Формат                                   : MPEG Audio
Версия формата                           : Version 1
Профиль формата                          : Layer 3
Режим                                    : Joint stereo
Идентификатор кодека                     : 55
Идентификатор кодека/Подсказка           : MP3
Продолжительность                        : 1 ч. 4 м.
Вид битрейта                             : Постоянный
Битрейт                                  : 192 Кбит/сек
Каналы                                   : 2 канала
Частота                                  : 48,0 КГц
Метод сжатия                             : С потерями
Размер потока                            : 89,0 Мбайт (10%)
Выравнивание                             : Соединение по промежуткам
Продолжительность промежутка             : 42  мс. (1,00 видеокадр)
Время предзагрузки промежутка            : 504  мс.
-
-Скриншоты:
-
-Добавлена восьмая, заключительная, серия первого сезона
Download / Скачать

Хотите скачать бесплатно? Зарегистрируйтесь на сайте (ссылка на регистрацию). Pirat.ca - самый быстрый торрент трекер в рунете!

Как скачивать  ·   Что такое торрент  ·   Рейтинг и ограничения



Последний раз редактировалось: kugesan (2015-02-09 12:54), всего редактировалось 10 раз(а)

Пост 20-Янв-2014 19:09 (спустя 8 минут)

Топик был перенесен из форума Зарубежные сериалы (Трюм) в форум Сериалы в эфире
erchine
 

kugesan ®

56691

Пост 03-Фев-2014 08:08 (спустя 13 дней)

[Q] 

Добавлена вторая серия

_________________

В мире две бесконечности: вселенная и человеческая глупость - Альберт Эйнштен
«Можно вытащить человека из грязи, но нельзя вытащить грязь из человека»!
[Профиль]  [ЛС] 

XMax

Флибустьер

Пост 05-Фев-2014 18:14 (спустя 2 дня 10 часов)

[Q] 

Забираем. Спасибо.
Автору респект!!!
[Профиль]  [ЛС] 

chaky

Лоцман

Пост 09-Фев-2014 13:30 (спустя 3 дня)

[Q] 

скоро 3 часть?
[Профиль]  [ЛС] 

kugesan ®

56691

Пост 09-Фев-2014 13:32 (спустя 1 минута)

[Q] 

chaky, Она в оригинале вышла только вчера... завтра послезавтра должна появиться в переводе.

_________________

В мире две бесконечности: вселенная и человеческая глупость - Альберт Эйнштен
«Можно вытащить человека из грязи, но нельзя вытащить грязь из человека»!
[Профиль]  [ЛС] 

Kamerad161

Лоцман

Пост 09-Фев-2014 23:08 (спустя 9 часов)

[Q] 

ОК! Ждем! Мне понравилось
[Профиль]  [ЛС] 

Han.M

Флибустьер

Пост 11-Мар-2014 20:10 (спустя 1 месяц 1 день)

[Q] 

Дайте скорости на 7 часть кто-нибудь!!!!!!!!!!!!!!
Добавлено спустя 17 минут 59 секунд:
Ну, пожаааалуйста.....
[Профиль]  [ЛС] 

kugesan ®

56691

Пост 17-Мар-2014 23:22 (спустя 6 дней)

[Q] 

Добавлена восьмая, заключительная, серия первого сезона

_________________

В мире две бесконечности: вселенная и человеческая глупость - Альберт Эйнштен
«Можно вытащить человека из грязи, но нельзя вытащить грязь из человека»!
[Профиль]  [ЛС] 

veter510

Флибустьер

Пост 26-Мар-2014 08:48 (спустя 8 дней)

[Q] 

Спасибо!!!
[Профиль]  [ЛС] 
Показать сообщения:    
Ответить на тему

Текущее время: Сегодня 09:46

Часовой пояс: GMT + 4



Вы не можете начинать темы
Вы не можете отвечать на сообщения
Вы не можете редактировать свои сообщения
Вы не можете удалять свои сообщения
Вы не можете голосовать в опросах
Вы не можете прикреплять файлы к сообщениям
Вы не можете скачивать файлы

▼ Вниз