ML
     
  Уважаемый Гость!
Вы можете поддержать проект и зарегистрироваться у наших партнеров - онлайн-стратегия MyLands. При регистрации в игре Вы получите код, который сможете активировать после регистрации на pirat.ca и получить 1000 дублонов.

Ваш код:
822959f93c00d34653763d5bbf9ee9a7134af98a
 
     

Столпы Земли / The Pillars of the Earth / Сезон: 1 / Серии: 1-8 (8)[LostFilm] (Серджо Мимика-Геззан / SERGIO MIMICA-GEZZAN) [2010, триллер, мелодрама, драма, история, HDTV 720p]

Ответить на тему
 
Автор
Сообщение

Пост 06-Янв-2012 16:15

[Q] 

Андря

Столпы Земли / The Pillars of the Earth
Год выпуска: 2010
Страна: Германия, Канада
Жанр: триллер, мелодрама, драма, история
Продолжительность: 05:23:21
Перевод: профессиональный многоголосый закадровый, LostFilm
Русские субтитры: нет
Субтитры: Английские
Режиссёр: Серджо Мимика-Геззан / SERGIO MIMICA-GEZZAN
В ролях: Иэн МакШейн, Мэтью Макфейден, Эдди Редмэйн, Хейли Этвелл, Дэвид Оакес, Наталиа Вёрнер, Сэм Клафлин, Анатоль Таубман, Готц Отто, Джоди Халс и др.
Описание: Время действия — Англия, XII век. Тяжелое, смутное время, жестокие нравы… Граница между добром и злом настолько условна, что легко сделать неверный шаг, принимая решения в масштабах целого государства. Вечная борьба за престол, постоянные войны, предательство церкви… Великолепная экранизация одноименного романа Кена Фоллета никого не оставит равнодушным!
Качество: HDTV
Формат: MKV
Видео кодек: H.264
Аудио кодек: AC3
Видео: MPEG-4 AVC (x264 crf 18), ~4500 kbps, 1280x720, 25 fps, 0.194 bit/pixel
Аудио 1: Русский, Dolby Digital, 5.1, 48 kHz, 448 kbps
Аудио 2: Английский, Dolby Digital, 5.1, 48 kHz, 384 kbps
Субтитры: Английские, SRT
General
Complete name : The Pillars of the Earth Part 1 & Part 2.mkv
Format : Matroska
File size : 3.73 GiB
Duration : 1h 45mn
Overall bit rate : 5 068 Kbps
Encoded date : UTC 2010-08-04 17:54:44
Writing application : mkvmerge v3.4.0 ('Rapunzel') built on May 15 2010 09:38:20
Writing library : libebml v0.8.0 + libmatroska v0.9.0
Video
ID : 1
Format : AVC
Format/Info : Advanced Video Codec
Format profile : [email protected]
Format settings, CABAC : Yes
Format settings, ReFrames : 3 frames
Format settings, GOP : M=1, N=32
Muxing mode : Container [email protected]
Codec ID : V_MPEG4/ISO/AVC
Duration : 1h 45mn
Bit rate : 4 135 Kbps
Width : 1 280 pixels
Height : 720 pixels
Display aspect ratio : 16:9
Frame rate : 25.000 fps
Color space : YUV
Chroma subsampling : 4:2:0
Bit depth : 8 bits
Scan type : Progressive
Bits/(Pixel*Frame) : 0.179
Stream size : 3.04 GiB (82%)
Writing library : x264 core 104 r1677 19df41a
Encoding settings : cabac=1 / ref=3 / deblock=1:0:0 / analyse=0x3:0x113 / me=hex / subme=7 / psy=1 / psy_rd=1.00:0.00 / mixed_ref=1 / me_range=16 / chroma_me=1 / trellis=2 / 8x8dct=1 / cqm=0 / deadzone=21,11 / fast_pskip=1 / chroma_qp_offset=-2 / threads=6 / sliced_threads=0 / nr=0 / decimate=1 / interlaced=0 / constrained_intra=0 / bframes=3 / b_pyramid=0 / b_adapt=1 / b_bias=0 / direct=3 / weightb=1 / open_gop=0 / weightp=2 / keyint=250 / keyint_min=25 / scenecut=40 / intra_refresh=0 / rc_lookahead=40 / rc=crf / mbtree=1 / crf=18.0 / qcomp=0.60 / qpmin=10 / qpmax=51 / qpstep=4 / vbv_maxrate=40000 / vbv_bufsize=40000 / crf_max=0.0 / ip_ratio=1.40 / aq=1:1.00 / nal_hrd=none
Language : English
Audio #1
ID : 2
Format : AC-3
Format/Info : Audio Coding 3
Mode extension : CM (complete main)
Codec ID : A_AC3
Duration : 1h 45mn
Bit rate mode : Constant
Bit rate : 448 Kbps
Channel(s) : 6 channels
Channel positions : Front: L C R, Side: L R, LFE
Sampling rate : 48.0 KHz
Video delay : 32ms
Stream size : 338 MiB (9%)
Language : Russian
Audio #2
ID : 3
Format : AC-3
Format/Info : Audio Coding 3
Mode extension : CM (complete main)
Codec ID : A_AC3
Duration : 1h 45mn
Bit rate mode : Constant
Bit rate : 384 Kbps
Channel(s) : 6 channels
Channel positions : Front: L C R, Side: L R, LFE
Sampling rate : 48.0 KHz
Video delay : 32ms
Stream size : 289 MiB (8%)
Language : English
Text
ID : 4
Format : UTF-8
Codec ID : S_TEXT/UTF8
Codec ID/Info : UTF-8 Plain Text
Language : English




Download / Скачать

Хотите скачать бесплатно? Зарегистрируйтесь на сайте (ссылка на регистрацию). Pirat.ca - самый быстрый торрент трекер в рунете!

Как скачивать  ·   Что такое торрент  ·   Рейтинг и ограничения

Пост 07-Янв-2012 09:10 (спустя 16 часов)

Топик был перенесен из форума Сериалы в форум Зарубежные сериалы

C2H5OH
 
Показать сообщения:    
Ответить на тему

Текущее время: Сегодня 05:56

Часовой пояс: GMT + 4



Вы не можете начинать темы
Вы не можете отвечать на сообщения
Вы не можете редактировать свои сообщения
Вы не можете удалять свои сообщения
Вы не можете голосовать в опросах
Вы не можете прикреплять файлы к сообщениям
Вы не можете скачивать файлы

▼ Вниз