ML
     
  Уважаемый Гость!
Вы можете поддержать проект и зарегистрироваться у наших партнеров - онлайн-стратегия MyLands. При регистрации в игре Вы получите код, который сможете активировать после регистрации на pirat.ca и получить 1000 дублонов.

Ваш код:
a978488e62322cd72e113ab723b8a7fdc10eb9b9
 
     

Теория Большого Взрыва / The Big Bang Theory / Сезон: 6 / Серии: 1-24 из 24 (Марк Сендроуски / Mark Cendrowski, Питер Чакос / Peter Chakos) [2012 г., ситуационная комедия, iTunes WEB-DL, 1080p] VO (Кураж-Бамбей) + [Sub Eng,Rus, + Original (Eng)]

Ответить на тему
 
Автор
Сообщение

Пост 26-Янв-2014 14:24

[Q] 

TERMOS

Легенда

-Теория Большого Взрыва / The Big Bang Theory
(6 сезон)
-- Производство: США | CBS
Жанр: ситуационная комедия
Год выпуска: 2012 г.
Продолжительность серии: ~00:21:00
Перевод: Профессиональный (одноголосый, закадровый) [Кураж-Бамбей]   
Оригинальный аудиопоток: английский
Режиссер: Марк Сендроуски / Mark Cendrowski, Питер Чакос / Peter Chakos-В ролях: Джим Парсонс / Jim Parsons (Sheldon), Джонни Галекки / Johnny Galecki (Leonard), Кейли Куоко / Kaley Cuoco (Penny), Саймон Хельберг / Simon Helberg (Howard Wolowitz), Кунал Найяр / Kunal Nayyar (Rajesh Koothrappali)-Описание: Два блестящих физика, Леонард и Шелдон, «великие умы», которые понимают, как «работает вселенная». Но их гениальность ничуть не помогает им общаться с людьми, особенно с женщинами. Всё начинает меняться, когда напротив них поселяется красавица Пенни.
    Когда Леонард и Шелдон встречают Пенни, Леонард сразу же начинает интересоваться ею. Он видит в общении с Пенни огромную перспективу, вплоть до любви, однако Шелдон понимает, что мечтам его друга не суждено сбыться.
    Стоит также отметить пару странных друзей этих физиков: Воловиц, который любит употреблять фразы на разных языках, включая русский, и Раджеш Кутрапали, теряющий дар речи при виде женщин.
-
Качество видео: iTunes WEB-DL
Контейнер: MKV
Стандарт разрешения: 1080p
Видео кодек: H.264/AVC
Аудио кодек: AC3
Видео: 1920x1080, 23.976 fps, ~5100 Kbps avg
Аудио: (RUS) 48.0 KHz, 6 ch (Front: L C R, Side: L R, LFE), ~384 Kbps avg
Аудио #2: (ENG) 48.0 kHz, 6 ch (Front: L C R, Side: L R, LFE), ~384 kbps avg
Cубтитры: English, Russian
Episode 01: The Date Night Variable
Episode 02: The Decoupling Fluctuation
Episode 03: The Higgs Boson Observation
Episode 04: The Re-Entry Minimization
Episode 05: The Holographic Excitation
Episode 06: The Extract Obliteration
Episode 07: The Habitation Configuration
Episode 08: The 43 Peculiarity
Episode 09: The Parking Spot Escalation
Episode 10: The Fish Guts Displacement
Episode 11: The Santa Simulation
Episode 12: The Egg Salad Equivalency
Episode 13: The Bakersfield Expedition
Episode 14: The Cooper/Kripke Inversion
Episode 15: The Spoiler Alert Segmentation
Episode 16: The Tangible Affection Proof
Episode 17: The Monster Isolation
Episode 18: The Contractual Obligation Implementation
Episode 19: The Closet Reconfiguration
Episode 20: The Tenure Turbulence
Episode 21: The Closure Alternative
Episode 22: The Proton Resurgence
Episode 23: The Love Spell Potential
Episode 24: The Bon Voyage Reaction
Код:
General
Complete name                    : U:\Uploads\The Big Bang Theory - Season 6 [1080p.WEB-DL]\The.Big.Bang.Theory.S06E01.1080p.WEB-DL.Rus.Eng.mkv
Format                           : Matroska
File size                        : 912 MiB
Duration                         : 21mn 7s
Overall bit rate                 : 6 038 Kbps
Movie name                       : The Big Bang Theory [Season 6] (2012)
Encoded date                     : UTC 2014-01-26 09:55:24
Writing application              : mkvmerge v6.0.0 ('Coming Up For Air') built on Jan 20 2013 09:52:00
Writing library                  : libebml v1.3.0 + libmatroska v1.4.0
Video
ID                               : 1
Format                           : AVC
Format/Info                      : Advanced Video Codec
Format profile                   : [email protected]
Format settings, CABAC           : Yes
Format settings, ReFrames        : 4 frames
Format settings, GOP             : M=2, N=32
Muxing mode                      : Container [email protected]
Codec ID                         : V_MPEG4/ISO/AVC
Duration                         : 21mn 7s
Bit rate mode                    : Variable
Bit rate                         : 5 149 Kbps
Width                            : 1 920 pixels
Height                           : 1 080 pixels
Display aspect ratio             : 16:9
Frame rate                       : 23.976 fps
Color space                      : YUV
Chroma subsampling               : 4:2:0
Bit depth                        : 8 bits
Scan type                        : Progressive
Bits/(Pixel*Frame)               : 0.104
Stream size                      : 778 MiB (85%)
Title                            : The Big Bang Theory 6x01: The Date Night Variable
Language                         : English
Color primaries                  : BT.709-5, BT.1361, IEC 61966-2-4, SMPTE RP177
Transfer characteristics         : BT.709-5, BT.1361
Matrix coefficients              : BT.709-5, BT.1361, IEC 61966-2-4 709, SMPTE RP177
Audio #1
ID                               : 2
Format                           : AC-3
Format/Info                      : Audio Coding 3
Mode extension                   : CM (complete main)
Codec ID                         : A_AC3
Duration                         : 21mn 7s
Bit rate mode                    : Constant
Bit rate                         : 384 Kbps
Channel(s)                       : 6 channels
Channel positions                : Front: L C R, Side: L R, LFE
Sampling rate                    : 48.0 KHz
Bit depth                        : 16 bits
Stream size                      : 58.0 MiB (6%)
Title                            : VO (Kuraj-Bambey) 5.1
Language                         : Russian
Audio #2
ID                               : 3
Format                           : AC-3
Format/Info                      : Audio Coding 3
Mode extension                   : CM (complete main)
Codec ID                         : A_AC3
Duration                         : 21mn 7s
Bit rate mode                    : Constant
Bit rate                         : 384 Kbps
Channel(s)                       : 6 channels
Channel positions                : Front: L C R, Side: L R, LFE
Sampling rate                    : 48.0 KHz
Bit depth                        : 16 bits
Stream size                      : 58.0 MiB (6%)
Language                         : English
Text #1
ID                               : 4
Format                           : UTF-8
Codec ID                         : S_TEXT/UTF8
Codec ID/Info                    : UTF-8 Plain Text
Language                         : Russian
Text #2
ID                               : 5
Format                           : UTF-8
Codec ID                         : S_TEXT/UTF8
Codec ID/Info                    : UTF-8 Plain Text
Language                         : English
Download / Скачать

Хотите скачать бесплатно? Зарегистрируйтесь на сайте (ссылка на регистрацию). Pirat.ca - самый быстрый торрент трекер в рунете!

Как скачивать  ·   Что такое торрент  ·   Рейтинг и ограничения



Последний раз редактировалось: TERMOS (2014-01-27 18:22), всего редактировалось 4 раз(а)

TERMOS ®

Легенда

12044

Пост 26-Янв-2014 17:14 (спустя 2 часа 50 минут)

[Q] 

Уважаемые Модераторы! Что не так с ТФ?

_________________
[Профиль]  [ЛС] 

TERMOS ®

Легенда

12044

Пост 27-Янв-2014 19:40 (спустя 1 день 2 часа)

[Q] 

Разобрался. ah

_________________
[Профиль]  [ЛС] 

Пост 27-Янв-2014 20:01 (спустя 20 минут)

Топик был перенесен из форума Зарубежные сериалы (Трюм) в форум Зарубежные сериалы
kugesan
 

SpongeGadge

Лоцман

Пост 03-Мар-2014 01:39 (спустя 1 месяц 6 дней)

[Q] 

а почему с 10-ой серии отсутствуют русские субтитры?! только английские!
[Профиль]  [ЛС] 

zachitnik

Шкипер

Пост 19-Ноя-2015 21:05 (спустя 1 год 8 месяцев)

[Q] 

СПАСИБО!!!!!!!!!!!!!!!!!
[Профиль]  [ЛС] 
Показать сообщения:    
Ответить на тему

Текущее время: Сегодня 22:06

Часовой пояс: GMT + 4



Вы не можете начинать темы
Вы не можете отвечать на сообщения
Вы не можете редактировать свои сообщения
Вы не можете удалять свои сообщения
Вы не можете голосовать в опросах
Вы не можете прикреплять файлы к сообщениям
Вы не можете скачивать файлы

▼ Вниз